  0
SECTION
  2
HEADER
  9
$ACADVER
  1
AC1009
  9
$INSBASE
 10
0.0
 20
0.0
 30
0.0
  9
$EXTMIN
 10
87571.877315808437
 20
-77358.651736384796
 30
0.0
  9
$EXTMAX
 10
146971.87731580841
 20
-35358.651736384789
 30
0.0
  9
$LIMMIN
 10
0.0
 20
0.0
  9
$LIMMAX
 10
20000.0
 20
297.0
  9
$ORTHOMODE
 70
     1
  9
$REGENMODE
 70
     1
  9
$FILLMODE
 70
     1
  9
$QTEXTMODE
 70
     0
  9
$MIRRTEXT
 70
     1
  9
$DRAGMODE
 70
     2
  9
$LTSCALE
 40
1.0
  9
$OSMODE
 70
    37
  9
$ATTMODE
 70
     1
  9
$TEXTSIZE
 40
2.5
  9
$TRACEWID
 40
1.0
  9
$TEXTSTYLE
  7
STANDARD
  9
$CLAYER
  8
LAYER4
  9
$CELTYPE
  6
BYLAYER
  9
$CECOLOR
 62
   256
  9
$DIMSCALE
 40
1.0
  9
$DIMASZ
 40
600.0
  9
$DIMEXO
 40
0.625
  9
$DIMDLI
 40
3.75
  9
$DIMRND
 40
0.0
  9
$DIMDLE
 40
0.0
  9
$DIMEXE
 40
1.25
  9
$DIMTP
 40
0.0
  9
$DIMTM
 40
0.0
  9
$DIMTXT
 40
800.0
  9
$DIMCEN
 40
2.5
  9
$DIMTSZ
 40
0.0
  9
$DIMTOL
 70
     0
  9
$DIMLIM
 70
     0
  9
$DIMTIH
 70
     0
  9
$DIMTOH
 70
     0
  9
$DIMSE1
 70
     0
  9
$DIMSE2
 70
     0
  9
$DIMTAD
 70
     1
  9
$DIMZIN
 70
     8
  9
$DIMBLK
  1

  9
$DIMASO
 70
     1
  9
$DIMSHO
 70
     1
  9
$DIMPOST
  1

  9
$DIMAPOST
  1

  9
$DIMALT
 70
     0
  9
$DIMALTD
 70
     3
  9
$DIMALTF
 40
0.03937007874016
  9
$DIMLFAC
 40
1.0
  9
$DIMTOFL
 70
     1
  9
$DIMTVP
 40
0.0
  9
$DIMTIX
 70
     0
  9
$DIMSOXD
 70
     0
  9
$DIMSAH
 70
     0
  9
$DIMBLK1
  1

  9
$DIMBLK2
  1

  9
$DIMSTYLE
  2
ISO-25
  9
$DIMCLRD
 70
     0
  9
$DIMCLRE
 70
     0
  9
$DIMCLRT
 70
     1
  9
$DIMTFAC
 40
1.0
  9
$DIMGAP
 40
0.625
  9
$LUNITS
 70
     2
  9
$LUPREC
 70
     4
  9
$SKETCHINC
 40
1.0
  9
$FILLETRAD
 40
10.0
  9
$AUNITS
 70
     0
  9
$AUPREC
 70
     0
  9
$MENU
  1
.
  9
$ELEVATION
 40
0.0
  9
$PELEVATION
 40
0.0
  9
$THICKNESS
 40
0.0
  9
$LIMCHECK
 70
     0
  9
$BLIPMODE
 70
     0
  9
$CHAMFERA
 40
10.0
  9
$CHAMFERB
 40
10.0
  9
$SKPOLY
 70
     0
  9
$TDCREATE
 40
2453269.64156044
  9
$TDUPDATE
 40
2453274.712972349
  9
$TDINDWG
 40
0.3672114699
  9
$TDUSRTIMER
 40
0.3672113542
  9
$USRTIMER
 70
     1
  9
$ANGBASE
 50
90.0
  9
$ANGDIR
 70
     0
  9
$PDMODE
 70
     0
  9
$PDSIZE
 40
0.0
  9
$PLINEWID
 40
0.0
  9
$COORDS
 70
     2
  9
$SPLFRAME
 70
     0
  9
$SPLINETYPE
 70
     6
  9
$SPLINESEGS
 70
     8
  9
$ATTDIA
 70
     0
  9
$ATTREQ
 70
     1
  9
$HANDLING
 70
 22529
  9
$HANDSEED
  5
D2D
  9
$SURFTAB1
 70
     6
  9
$SURFTAB2
 70
     6
  9
$SURFTYPE
 70
     6
  9
$SURFU
 70
     6
  9
$SURFV
 70
     6
  9
$UCSNAME
  2

  9
$UCSORG
 10
0.0
 20
0.0
 30
0.0
  9
$UCSXDIR
 10
1.0
 20
0.0
 30
0.0
  9
$UCSYDIR
 10
0.0
 20
1.0
 30
0.0
  9
$PUCSNAME
  2

  9
$PUCSORG
 10
0.0
 20
0.0
 30
0.0
  9
$PUCSXDIR
 10
1.0
 20
0.0
 30
0.0
  9
$PUCSYDIR
 10
0.0
 20
1.0
 30
0.0
  9
$USERI1
 70
     0
  9
$USERI2
 70
     0
  9
$USERI3
 70
     0
  9
$USERI4
 70
     0
  9
$USERI5
 70
     0
  9
$USERR1
 40
0.0
  9
$USERR2
 40
0.0
  9
$USERR3
 40
0.0
  9
$USERR4
 40
0.0
  9
$USERR5
 40
0.0
  9
$WORLDVIEW
 70
     1
  9
$SHADEDGE
 70
     3
  9
$SHADEDIF
 70
    70
  9
$TILEMODE
 70
     1
  9
$MAXACTVP
 70
    64
  9
$PLIMCHECK
 70
     0
  9
$PEXTMIN
 10
27.65425252914428
 20
20.161249995231621
 30
0.0
  9
$PEXTMAX
 10
248.8882727622985
 20
181.4512499570846
 30
0.0
  9
$PLIMMIN
 10
-5.027069091796875
 20
-3.7570831775665279
  9
$PLIMMAX
 10
291.89892578125
 20
206.21624445915219
  9
$UNITMODE
 70
     0
  9
$VISRETAIN
 70
     1
  9
$PLINEGEN
 70
     0
  9
$PSLTSCALE
 70
     1
  0
ENDSEC
  0
SECTION
  2
TABLES
  0
TABLE
  2
VPORT
 70
     8
  0
VPORT
  2
*ACTIVE
 70
     0
 10
0.0
 20
0.0
 11
1.0
 21
1.0
 12
117271.3590097546
 22
-56538.322597855193
 13
0.0
 23
0.0
 14
10.0
 24
10.0
 15
10.0
 25
10.0
 16
0.0
 26
0.0
 36
1.0
 17
0.0
 27
0.0
 37
0.0
 40
44650.587745221797
 41
1.3368756641870341
 42
50.0
 43
0.0
 44
0.0
 50
0.0
 51
0.0
 71
     0
 72
   100
 73
     1
 74
     3
 75
     0
 76
     0
 77
     0
 78
     0
  0
ENDTAB
  0
TABLE
  2
LTYPE
 70
     1
  0
LTYPE
  2
CONTINUOUS
 70
     0
  3
Solid line
 72
    65
 73
     0
 40
0.0
  0
ENDTAB
  0
TABLE
  2
LAYER
 70
    10
  0
LAYER
  2
0
 70
     0
 62
     7
  6
CONTINUOUS
  0
LAYER
  2
LAYER1
 70
     0
 62
     7
  6
CONTINUOUS
  0
LAYER
  2
LAYER2
 70
     0
 62
     5
  6
CONTINUOUS
  0
LAYER
  2
LAYER3
 70
     0
 62
     1
  6
CONTINUOUS
  0
LAYER
  2
LAYER4
 70
     0
 62
     3
  6
CONTINUOUS
  0
LAYER
  2
DEFPOINTS
 70
     0
 62
     7
  6
CONTINUOUS
  0
LAYER
  2
LAYER6
 70
     0
 62
     7
  6
CONTINUOUS
  0
LAYER
  2
RAHMEN025
 70
     0
 62
     7
  6
CONTINUOUS
  0
LAYER
  2
RAHMEN07
 70
     0
 62
     5
  6
CONTINUOUS
  0
LAYER
  2
RAHMEN05
 70
     0
 62
     6
  6
CONTINUOUS
  0
ENDTAB
  0
TABLE
  2
STYLE
 70
     2
  0
STYLE
  2
STANDARD
 70
     0
 40
0.0
 41
1.0
 50
0.0
 71
     0
 42
2.5
  3
txt
  4

  0
STYLE
  2
ISO_PROPORTIONAL
 70
     0
 40
0.0
 41
1.0
 50
0.0
 71
     0
 42
2.5
  3
isocp.shx
  4

  0
ENDTAB
  0
TABLE
  2
VIEW
 70
     0
  0
ENDTAB
  0
TABLE
  2
UCS
 70
     0
  0
ENDTAB
  0
TABLE
  2
APPID
 70
     1
  0
APPID
  2
ACAD
 70
     0
  0
ENDTAB
  0
TABLE
  2
DIMSTYLE
 70
     2
  0
DIMSTYLE
  2
ISO-25
 70
     0
  3

  4

  5

  6

  7

 40
1.0
 41
600.0
 42
0.625
 43
3.75
 44
1.25
 45
0.0
 46
0.0
 47
0.0
 48
0.0
140
800.0
141
2.5
142
0.0
143
0.03937007874016
144
1.0
145
0.0
146
1.0
147
0.625
 71
     0
 72
     0
 73
     0
 74
     0
 75
     0
 76
     0
 77
     1
 78
     8
170
     0
171
     3
172
     1
173
     0
174
     0
175
     0
176
     0
177
     0
178
     1
  0
DIMSTYLE
  2
DIN
 70
     0
  3

  4

  5

  6

  7

 40
1.0
 41
2.5
 42
0.625
 43
3.75
 44
1.25
 45
0.0
 46
0.0
 47
0.0
 48
0.0
140
2.5
141
2.5
142
0.0
143
0.0394
144
1.0
145
1.0
146
1.0
147
0.625
 71
     0
 72
     0
 73
     1
 74
     0
 75
     0
 76
     0
 77
     1
 78
     8
170
     0
171
     2
172
     1
173
     0
174
     0
175
     0
176
     0
177
     0
178
     0
  0
ENDTAB
  0
ENDSEC
  0
SECTION
  2
BLOCKS
  0
BLOCK
  8
0
  2
$MODEL_SPACE
 70
     0
 10
0.0
 20
0.0
 30
0.0
  3
$MODEL_SPACE
  1

  0
ENDBLK
  5
21
  8
0
  0
BLOCK
 67
     1
  8
0
  2
$PAPER_SPACE
 70
     0
 10
0.0
 20
0.0
 30
0.0
  3
$PAPER_SPACE
  1

  0
ENDBLK
  5
96B
 67
     1
  8
0
  0
BLOCK
  8
0
  2
DIN_A4_TITLE_BLOCK
 70
     2
 10
0.0
 20
0.0
 30
0.0
  3
DIN_A4_TITLE_BLOCK
  1

  0
LINE
  5
2D5
  8
RAHMEN025
 10
210.0
 20
0.0
 30
0.0
 11
210.0
 21
297.0
 31
0.0
  0
LINE
  5
2D6
  8
RAHMEN025
 10
0.0
 20
297.0
 30
0.0
 11
0.0
 21
0.0
 31
0.0
  0
LINE
  5
2D7
  8
RAHMEN07
 10
205.0
 20
5.0
 30
0.0
 11
205.0
 21
292.0
 31
0.0
  0
LINE
  5
2D8
  8
RAHMEN07
 10
17.80000000000026
 20
5.0
 30
0.0
 11
17.80000000000026
 21
292.0
 31
0.0
  0
LINE
  5
2D9
  8
RAHMEN025
 10
0.0
 20
0.0
 30
0.0
 11
210.0
 21
0.0
 31
0.0
  0
LINE
  5
2DA
  8
RAHMEN025
 10
17.80000000000026
 20
9.25
 30
0.0
 11
205.0
 21
9.25
 31
0.0
  0
LINE
  5
2DB
  8
RAHMEN07
 10
17.80000000000026
 20
60.250000000000021
 30
0.0
 11
205.0000000000002
 21
60.250000000000021
 31
0.0
  0
LINE
  5
2DC
  8
RAHMEN07
 10
17.80000000000026
 20
22.0
 30
0.0
 11
205.0
 21
22.0
 31
0.0
  0
LINE
  5
2DD
  8
RAHMEN07
 10
17.80000000000026
 20
43.249999999999979
 30
0.0
 11
205.0000000000002
 21
43.249999999999979
 31
0.0
  0
LINE
  5
2DE
  8
RAHMEN025
 10
17.80000000000026
 20
39.000000000000007
 30
0.0
 11
116.60000000000009
 21
39.000000000000007
 31
0.0
  0
LINE
  5
2DF
  8
RAHMEN025
 10
17.80000000000026
 20
34.750000000000007
 30
0.0
 11
116.60000000000009
 21
34.750000000000007
 31
0.0
  0
LINE
  5
2E0
  8
RAHMEN025
 10
17.80000000000026
 20
30.500000000000011
 30
0.0
 11
116.60000000000009
 21
30.500000000000011
 31
0.0
  0
LINE
  5
2E1
  8
RAHMEN025
 10
17.80000000000026
 20
26.250000000000011
 30
0.0
 11
116.60000000000009
 21
26.250000000000011
 31
0.0
  0
TEXT
  5
2E2
  8
RAHMEN025
 10
73.65231252739386
 20
5.875
 30
0.0
 40
2.5
  1
Ursprung
  7
ISO_PROPORTIONAL
  0
TEXT
  5
2E3
  8
RAHMEN025
 10
72.898933563884384
 20
27.125000000000011
 30
0.0
 40
2.5
  1
Norm
  7
ISO_PROPORTIONAL
  0
TEXT
  5
2E4
  8
RAHMEN025
 10
72.898933563884384
 20
31.375000000000011
 30
0.0
 40
2.5
  1
Gepr.
  7
ISO_PROPORTIONAL
  0
TEXT
  5
2E5
  8
RAHMEN025
 10
72.898933563884384
 20
35.625000000000007
 30
0.0
 40
2.5
  1
Bearb.
  7
ISO_PROPORTIONAL
  0
TEXT
  5
2E6
  8
RAHMEN025
 10
74.003665955107067
 20
55.812500000000007
 30
0.0
 40
2.5
  1
(Zul. Abw.)
  7
ISO_PROPORTIONAL
  0
LINE
  5
2E7
  8
RAHMEN07
 10
17.80000000000026
 20
5.0
 30
0.0
 11
205.0
 21
5.0
 31
0.0
  0
TEXT
  5
2E8
  8
RAHMEN025
 10
19.403665955107119
 20
55.812500000000007
 30
0.0
 40
2.5
  1
(Verwendungsbereich)
  7
ISO_PROPORTIONAL
  0
LINE
  5
2E9
  8
RAHMEN025
 10
72.400000000000205
 20
60.250000000000021
 30
0.0
 11
72.400000000000205
 21
5.0
 31
0.0
  0
LINE
  5
2EA
  8
RAHMEN025
 10
25.600000000000279
 20
43.250000000000007
 30
0.0
 11
25.60000000000025
 21
5.0
 31
0.0
  0
LINE
  5
2EB
  8
RAHMEN025
 10
51.60000000000025
 20
43.250000000000007
 30
0.0
 11
51.60000000000025
 21
5.0
 31
0.0
  0
LINE
  5
2EC
  8
RAHMEN025
 10
64.60000000000025
 20
43.250000000000007
 30
0.0
 11
64.60000000000025
 21
5.0
 31
0.0
  0
TEXT
  5
2ED
  8
RAHMEN025
 10
18.114729977426169
 20
5.875
 30
0.0
 40
2.5
  1
Zust.
  7
ISO_PROPORTIONAL
  0
TEXT
  5
2EE
  8
RAHMEN025
 10
31.185439040416071
 20
5.875
 30
0.0
 40
2.5
  1
Änderung
  7
ISO_PROPORTIONAL
  0
TEXT
  5
2EF
  8
RAHMEN025
 10
53.411628580724539
 20
5.875
 30
0.0
 40
2.5
  1
Datum
  7
ISO_PROPORTIONAL
  0
TEXT
  5
2F0
  8
RAHMEN025
 10
64.675031848482377
 20
5.875
 30
0.0
 40
2.5
  1
Name
  7
ISO_PROPORTIONAL
  0
LINE
  5
2F1
  8
RAHMEN025
 10
17.80000000000026
 20
13.5
 30
0.0
 11
72.400000000000205
 21
13.5
 31
0.0
  0
LINE
  5
2F2
  8
RAHMEN025
 10
17.80000000000026
 20
17.75
 30
0.0
 11
72.400000000000205
 21
17.75
 31
0.0
  0
LINE
  5
2F3
  8
RAHMEN025
 10
116.60000000000019
 20
60.250000000000021
 30
0.0
 11
116.60000000000009
 21
5.0
 31
0.0
  0
LINE
  5
2F4
  8
RAHMEN025
 10
98.400000000000261
 20
60.250000000000021
 30
0.0
 11
98.400000000000205
 21
22.0
 31
0.0
  0
TEXT
  5
2F5
  8
RAHMEN025
 10
99.84609815315639
 20
55.812500000000007
 30
0.0
 40
2.5
  1
(Oberfl.)
  7
ISO_PROPORTIONAL
  0
TEXT
  5
2F6
  8
RAHMEN025
 10
169.72625990249171
 20
55.812500000000007
 30
0.0
 40
2.5
  1
(Gewicht)
  7
ISO_PROPORTIONAL
  0
LINE
  5
2F7
  8
RAHMEN025
 10
168.60000000000019
 20
60.24999999999995
 30
0.0
 11
168.60000000000019
 21
53.875000000000007
 31
0.0
  0
LINE
  5
2F8
  8
RAHMEN025
 10
116.60000000000019
 20
53.875000000000007
 30
0.0
 11
205.0000000000002
 21
53.875000000000007
 31
0.0
  0
TEXT
  5
2F9
  8
RAHMEN025
 10
117.7620476356918
 20
44.124999999999979
 30
0.0
 40
2.5
  1
(Modell- oder Gesenk-Nr)
  7
ISO_PROPORTIONAL
  0
TEXT
  5
2FA
  8
RAHMEN025
 10
117.7620476356918
 20
50.346350044978188
 30
0.0
 40
2.5
  1
(Werkstoff, Halbzeug)
  7
ISO_PROPORTIONAL
  0
ATTDEF
  5
2FB
  8
RAHMEN05
 10
144.50074446870599
 20
30.555109227152428
 30
0.0
 40
5.0
  1
Benennung
  7
ISO_PROPORTIONAL
 72
     4
 11
160.5913536854751
 21
32.214500010383318
 31
0.0
  3
Benennung
  2
BENENNUNG
 70
     0
  0
ATTDEF
  5
2FC
  8
RAHMEN05
 10
147.5035696603037
 20
12.82473610229667
 30
0.0
 40
5.0
  1
XXX
  7
ISO_PROPORTIONAL
 72
     4
 11
154.2535696603037
 21
15.32473610229667
 31
0.0
  3
Zeichnungsnummer
  2
ZEICHNUNGSNUMMER
 70
     0
  0
TEXT
  5
2FD
  8
RAHMEN025
 10
118.2767000439928
 20
5.875
 30
0.0
 40
2.5
  1
Ersatz für:
  7
ISO_PROPORTIONAL
  0
ATTDEF
  5
2FE
  8
RAHMEN025
 10
99.718134102142443
 20
31.456032567255281
 30
0.0
 40
2.5
  1
XXX
  7
ISO_PROPORTIONAL
  3
Geprüft von
  2
NAME
 70
     0
  0
ATTDEF
  5
2FF
  8
RAHMEN025
 10
83.455021350337816
 20
31.456032567255281
 30
0.0
 40
2.5
  1
00.00.00
  7
ISO_PROPORTIONAL
  3
Geprüft am
  2
GEPRÜFT
 70
     0
  0
LINE
  5
300
  8
RAHMEN025
 10
82.800000000000239
 20
43.249999999999979
 30
0.0
 11
82.800000000000182
 21
22.000000000000021
 31
0.0
  0
ATTDEF
  5
301
  8
RAHMEN025
 10
83.455021350337816
 20
35.706032567255278
 30
0.0
 40
2.5
  1
00.00.00
  7
ISO_PROPORTIONAL
  3
Bearbeitet am
  2
BEARBEIT.
 70
     0
  0
TEXT
  5
302
  8
RAHMEN025
 10
86.627910854917616
 20
39.875000000000007
 30
0.0
 40
2.5
  1
Datum
  7
ISO_PROPORTIONAL
  0
ATTDEF
  5
303
  8
RAHMEN025
 10
99.718134102142443
 20
35.706032567255278
 30
0.0
 40
2.5
  1
XXX
  7
ISO_PROPORTIONAL
  3
Gezeichnet von
  2
NAME
 70
     0
  0
TEXT
  5
304
  8
RAHMEN025
 10
103.1733221513886
 20
39.875000000000007
 30
0.0
 40
2.5
  1
Name
  7
ISO_PROPORTIONAL
  0
TEXT
  5
305
  8
RAHMEN025
 10
117.7620476356918
 20
47.257158735959258
 30
0.0
 40
2.5
  1
(Rohteil-Nr)
  7
ISO_PROPORTIONAL
  0
LINE
  5
306
  8
RAHMEN025
 10
192.00000000000011
 20
21.999999999999979
 30
0.0
 11
192.00000000000011
 21
9.25
 31
0.0
  0
TEXT
  5
307
  8
RAHMEN025
 10
162.47670004399271
 20
5.875
 30
0.0
 40
2.5
  1
Ersatz durch:
  7
ISO_PROPORTIONAL
  0
LINE
  5
308
  8
RAHMEN025
 10
160.80000000000001
 20
9.25
 30
0.0
 11
160.80000000000001
 21
4.9999999999999138
 31
0.0
  0
TEXT
  5
309
  8
RAHMEN025
 10
192.91225948332189
 20
10.255790835553951
 30
0.0
 40
2.5
  1
Blätter
  7
ISO_PROPORTIONAL
  0
LINE
  5
30A
  8
RAHMEN025
 10
192.0
 20
13.5
 30
0.0
 11
205.0
 21
13.5
 31
0.0
  0
TEXT
  5
30B
  8
RAHMEN025
 10
192.9084594911225
 20
18.632194450093721
 30
0.0
 40
2.5
  1
Blatt
  7
ISO_PROPORTIONAL
  0
ATTDEF
  5
30C
  8
RAHMEN025
 10
133.39162318672871
 20
55.812500000000007
 30
0.0
 40
2.5
  1
1:1
  7
ISO_PROPORTIONAL
  3
Maßstab
  2
MAßSTAB
 70
     0
  0
TEXT
  5
30D
  8
RAHMEN025
 10
117.72625990249171
 20
55.812500000000007
 30
0.0
 40
2.5
  1
Maßstab
  7
ISO_PROPORTIONAL
  0
LINE
  5
30E
  8
RAHMEN025
 10
210.0
 20
297.0
 30
0.0
 11
0.0
 21
297.0
 31
0.0
  0
LINE
  5
30F
  8
RAHMEN07
 10
205.0
 20
292.0
 30
0.0
 11
17.80000000000026
 21
292.0
 31
0.0
  0
ENDBLK
  5
311
  8
0
  0
BLOCK
  8
0
  2
*D1
 70
     1
 10
0.0
 20
0.0
 30
0.0
  3
*D1
  1

  0
LINE
  5
331
  8
LAYER3
 62
     0
 10
85352.957194999239
 20
45828.089551391349
 30
0.0
 11
87985.129472592584
 21
46164.605567825551
 31
0.0
  0
LINE
  5
332
  8
LAYER3
 62
     0
 10
86056.117131050356
 20
40328.089551391349
 30
0.0
 11
88688.289408643686
 21
40664.605567825551
 31
0.0
  0
LINE
  5
333
  8
LAYER3
 62
     0
 10
88009.252578729895
 20
45966.06177353752
 30
0.0
 11
88661.686486563267
 21
40862.832324437208
 31
0.0
  0
SOLID
  5
334
  8
LAYER3
 62
     0
 10
88042.316791304838
 20
45970.288942555657
 30
0.0
 11
87976.188366154936
 21
45961.834604519368
 31
0.0
 12
87983.889564621029
 22
46164.447048987371
 32
0.0
 13
87983.889564621029
 23
46164.447048987371
 33
0.0
  0
SOLID
  5
335
  8
LAYER3
 62
     0
 10
88694.750699138225
 20
40867.059493455359
 30
0.0
 11
88628.622273988294
 21
40858.605155419071
 31
0.0
 12
88687.049500672132
 22
40664.447048987371
 32
0.0
 13
88687.049500672132
 23
40664.447048987371
 33
0.0
  0
TEXT
  5
336
  8
LAYER4
 62
     0
 10
88234.637430196875
 20
44208.067410205862
 30
0.0
 40
200.0
  1
5544.7664
 50
277.285585918572
  0
POINT
  5
337
  8
DEFPOINTS
 62
     0
 10
85352.337241013476
 20
45828.01029197227
 30
0.0
  0
POINT
  5
338
  8
DEFPOINTS
 62
     0
 10
86055.497177064564
 20
40328.010291972263
 30
0.0
  0
POINT
  5
339
  8
DEFPOINTS
 62
     0
 10
88687.049500672132
 20
40664.447048987371
 30
0.0
  0
ENDBLK
  5
33B
  8
0
  0
BLOCK
  8
0
  2
*D2
 70
     1
 10
0.0
 20
0.0
 30
0.0
  3
*D2
  1

  0
LINE
  5
33D
  8
LAYER3
 62
     0
 10
74915.228024076714
 20
45478.574367914953
 30
0.0
 11
73689.958871088835
 21
48046.425677900203
 31
0.0
  0
LINE
  5
33E
  8
LAYER3
 62
     0
 10
79840.2280240767
 20
47828.574367914938
 30
0.0
 11
78614.95887108882
 21
50396.425677900188
 31
0.0
  0
LINE
  5
33F
  8
LAYER3
 62
     0
 10
73871.001478723614
 20
48131.426482136398
 30
0.0
 11
78434.992875405587
 21
50309.168569893263
 31
0.0
  0
SOLID
  5
340
  8
LAYER3
 62
     0
 10
73856.646652703348
 20
48161.510532412911
 30
0.0
 11
73885.35630474388
 21
48101.342431859899
 31
0.0
 12
73690.497177064593
 22
48045.297526014823
 32
0.0
 13
73690.497177064593
 23
48045.297526014823
 33
0.0
  0
SOLID
  5
341
  8
LAYER3
 62
     0
 10
78420.638049385307
 20
50339.252620169762
 30
0.0
 11
78449.347701425839
 21
50279.08451961675
 31
0.0
 12
78615.497177064564
 22
50395.297526014809
 32
0.0
 13
78615.497177064564
 23
50395.297526014809
 33
0.0
  0
TEXT
  5
342
  8
LAYER4
 62
     0
 10
75430.710817440631
 20
48876.345777471273
 30
0.0
 40
200.0
  1
5456.9337
 50
25.50848649788324
  0
POINT
  5
343
  8
DEFPOINTS
 62
     0
 10
74915.497177064593
 20
45478.01029197227
 30
0.0
  0
POINT
  5
344
  8
DEFPOINTS
 62
     0
 10
79840.497177064579
 20
47828.010291972263
 30
0.0
  0
POINT
  5
345
  8
DEFPOINTS
 62
     0
 10
78615.497177064564
 20
50395.297526014809
 30
0.0
  0
ENDBLK
  5
347
  8
0
  0
BLOCK
  8
0
  2
*D3
 70
     1
 10
0.0
 20
0.0
 30
0.0
  3
*D3
  1

  0
LINE
  5
349
  8
LAYER3
 62
     0
 10
78315.198385087162
 20
47329.162992796271
 30
0.0
 11
77428.326350504678
 21
48958.558221018189
 31
0.0
  0
LINE
  5
34A
  8
LAYER3
 62
     0
 10
74915.198385087147
 20
45478.559244023199
 30
0.0
 11
74028.326350504663
 21
47107.954472245117
 31
0.0
  0
LINE
  5
34B
  8
LAYER3
 62
     0
 10
77253.259278164638
 20
48861.84688413213
 30
0.0
 11
74204.588590754502
 21
47202.470000927489
 31
0.0
  0
SOLID
  5
34C
  8
LAYER3
 62
     0
 10
77237.323706033931
 20
48891.124326847959
 30
0.0
 11
77269.194850295346
 21
48832.569441416308
 31
0.0
 12
77428.923934459584
 22
48957.460316916353
 32
0.0
 13
77428.923934459584
 23
48957.460316916353
 33
0.0
  0
SOLID
  5
34D
  8
LAYER3
 62
     0
 10
74188.653018623794
 20
47231.747443643319
 30
0.0
 11
74220.524162885195
 21
47173.19255821166
 31
0.0
 12
74028.92393445957
 22
47106.856568143281
 32
0.0
 13
74028.92393445957
 23
47106.856568143281
 33
0.0
  0
TEXT
  5
34E
  8
LAYER4
 62
     0
 10
75186.992452239399
 20
47737.89931016272
 30
0.0
 40
200.0
  1
3871.012
 50
28.559241357644289
  0
POINT
  5
34F
  8
DEFPOINTS
 62
     0
 10
78315.497177064608
 20
47328.614040745349
 30
0.0
  0
POINT
  5
350
  8
DEFPOINTS
 62
     0
 10
74915.497177064593
 20
45478.010291972278
 30
0.0
  0
POINT
  5
351
  8
DEFPOINTS
 62
     0
 10
74028.92393445957
 20
47106.856568143281
 30
0.0
  0
ENDBLK
  5
353
  8
0
  0
BLOCK
  8
0
  2
*D4
 70
     1
 10
0.0
 20
0.0
 30
0.0
  3
*D4
  1

  0
ARC
  5
355
  8
LAYER3
 62
     0
 10
78315.497177064579
 20
47328.614040745342
 30
0.0
 40
3116.390080791009
 50
183.67769214842929
 51
204.881549209215
  0
SOLID
  5
356
  8
LAYER3
 62
     0
 10
75172.208610291171
 20
47127.647420225992
 30
0.0
 11
75238.840945918113
 21
47129.78664750301
 31
0.0
 12
75199.107096273568
 22
47328.614040745328
 32
0.0
 13
75199.107096273568
 23
47328.614040745328
 33
0.0
  0
SOLID
  5
357
  8
LAYER3
 62
     0
 10
75518.145532157316
 20
46032.40045044064
 30
0.0
 11
75458.598106159829
 21
46002.424651843809
 31
0.0
 12
75578.299214949089
 22
45838.770273149763
 32
0.0
 13
75578.299214949089
 23
45838.770273149763
 33
0.0
  0
TEXT
  5
358
  8
LAYER4
 62
     0
 10
75238.445579139967
 20
46786.221243198539
 30
0.0
 40
200.0
  1
29°
 50
284.27962067882208
  0
POINT
  5
359
  8
DEFPOINTS
 62
     0
 10
75242.023966977373
 20
46813.202008940862
 30
0.0
  0
POINT
  5
35A
  8
DEFPOINTS
 62
     0
 10
78315.497177064579
 20
47328.614040745342
 30
0.0
  0
POINT
  5
35B
  8
DEFPOINTS
 62
     0
 10
78315.497177064579
 20
47328.614040745342
 30
0.0
  0
POINT
  5
35C
  8
DEFPOINTS
 62
     0
 10
74937.369200638714
 20
47328.614040745328
 30
0.0
  0
POINT
  5
35D
  8
DEFPOINTS
 62
     0
 10
74915.497177064593
 20
45478.01029197227
 30
0.0
  0
ENDBLK
  5
35F
  8
0
  0
BLOCK
  8
0
  2
A$C1B795162
 70
     0
 10
0.0
 20
0.0
 30
0.0
  3
A$C1B795162
  1

  0
POLYLINE
  5
361
  8
LAYER6
 66
     1
 10
0.0
 20
0.0
 30
0.0
 70
     1
  0
VERTEX
  5
B55
  8
LAYER6
 10
15102.657262848819
 20
862.71472759186872
 30
0.0
  0
VERTEX
  5
B56
  8
LAYER6
 10
16795.339004902431
 20
862.71472759186872
 30
0.0
  0
VERTEX
  5
B57
  8
LAYER6
 10
16795.339004902431
 20
2163.0104243567539
 30
0.0
  0
VERTEX
  5
B58
  8
LAYER6
 10
15102.657262848819
 20
2163.0104243567539
 30
0.0
  0
SEQEND
  5
B59
  8
LAYER6
  0
POLYLINE
  5
362
  8
LAYER6
 66
     1
 10
0.0
 20
0.0
 30
0.0
 70
     1
  0
VERTEX
  5
B5A
  8
LAYER6
 10
15156.110388654821
 20
933.96382204761903
 30
0.0
  0
VERTEX
  5
B5B
  8
LAYER6
 10
16741.88587909647
 20
933.96382204761903
 30
0.0
  0
VERTEX
  5
B5C
  8
LAYER6
 10
16741.88587909647
 20
2109.573603514923
 30
0.0
  0
VERTEX
  5
B5D
  8
LAYER6
 10
15156.110388654821
 20
2109.573603514923
 30
0.0
  0
SEQEND
  5
B5E
  8
LAYER6
  0
POLYLINE
  5
363
  8
LAYER6
 66
     1
 10
0.0
 20
0.0
 30
0.0
 70
     1
  0
VERTEX
  5
B5F
  8
LAYER6
 10
15156.110388654821
 20
4157.9849971168869
 30
0.0
  0
VERTEX
  5
B60
  8
LAYER6
 10
16741.88587909647
 20
4157.9849971168869
 30
0.0
  0
VERTEX
  5
B61
  8
LAYER6
 10
16741.88587909647
 20
5333.5947785841854
 30
0.0
  0
VERTEX
  5
B62
  8
LAYER6
 10
15156.110388654821
 20
5333.5947785841854
 30
0.0
  0
SEQEND
  5
B63
  8
LAYER6
  0
POLYLINE
  5
364
  8
LAYER6
 66
     1
 10
0.0
 20
0.0
 30
0.0
 70
     1
  0
VERTEX
  5
B64
  8
LAYER6
 10
15102.657262848819
 20
4086.7359026611148
 30
0.0
  0
VERTEX
  5
B65
  8
LAYER6
 10
16795.339004902431
 20
4086.7359026611148
 30
0.0
  0
VERTEX
  5
B66
  8
LAYER6
 10
16795.339004902431
 20
5387.0315994260163
 30
0.0
  0
VERTEX
  5
B67
  8
LAYER6
 10
15102.657262848819
 20
5387.0315994260163
 30
0.0
  0
SEQEND
  5
B68
  8
LAYER6
  0
POLYLINE
  5
365
  8
LAYER3
 66
     1
 10
0.0
 20
0.0
 30
0.0
 70
     8
  0
VERTEX
  5
366
  8
LAYER3
 10
10599.367643145941
 20
10010.08982198274
 30
0.0
 70
    32
  0
VERTEX
  5
367
  8
LAYER3
 10
10600.76764314594
 20
9958.0898219827432
 30
0.0
 70
    32
  0
VERTEX
  5
368
  8
LAYER3
 10
10606.76764314594
 20
9906.1898219827417
 30
0.0
 70
    32
  0
VERTEX
  5
369
  8
LAYER3
 10
10617.167643145929
 20
9854.3898219827479
 30
0.0
 70
    32
  0
VERTEX
  5
36A
  8
LAYER3
 10
10632.06764314594
 20
9802.5898219827432
 30
0.0
 70
    32
  0
VERTEX
  5
36B
  8
LAYER3
 10
10651.56764314594
 20
9750.9898219827446
 30
0.0
 70
    32
  0
VERTEX
  5
36C
  8
LAYER3
 10
10675.46764314593
 20
9699.4898219827446
 30
0.0
 70
    32
  0
VERTEX
  5
36D
  8
LAYER3
 10
10703.76764314594
 20
9648.1898219827417
 30
0.0
 70
    32
  0
VERTEX
  5
36E
  8
LAYER3
 10
10736.56764314594
 20
9597.0898219827432
 30
0.0
 70
    32
  0
VERTEX
  5
36F
  8
LAYER3
 10
10773.867643145941
 20
9546.1898219827417
 30
0.0
 70
    32
  0
VERTEX
  5
370
  8
LAYER3
 10
10815.46764314593
 20
9495.6898219827417
 30
0.0
 70
    32
  0
VERTEX
  5
371
  8
LAYER3
 10
10861.46764314593
 20
9445.3898219827479
 30
0.0
 70
    32
  0
VERTEX
  5
372
  8
LAYER3
 10
10911.867643145941
 20
9395.4898219827446
 30
0.0
 70
    32
  0
VERTEX
  5
373
  8
LAYER3
 10
10966.46764314593
 20
9345.8898219827461
 30
0.0
 70
    32
  0
VERTEX
  5
374
  8
LAYER3
 10
11025.46764314593
 20
9296.6898219827417
 30
0.0
 70
    32
  0
VERTEX
  5
375
  8
LAYER3
 10
11088.667643145929
 20
9247.9898219827446
 30
0.0
 70
    32
  0
VERTEX
  5
376
  8
LAYER3
 10
11156.06764314594
 20
9199.6898219827417
 30
0.0
 70
    32
  0
VERTEX
  5
377
  8
LAYER3
 10
11227.667643145929
 20
9151.8898219827479
 30
0.0
 70
    32
  0
VERTEX
  5
378
  8
LAYER3
 10
11303.367643145941
 20
9104.5898219827432
 30
0.0
 70
    32
  0
VERTEX
  5
379
  8
LAYER3
 10
11383.167643145929
 20
9057.8898219827461
 30
0.0
 70
    32
  0
VERTEX
  5
37A
  8
LAYER3
 10
11466.96764314593
 20
9011.6898219827417
 30
0.0
 70
    32
  0
VERTEX
  5
37B
  8
LAYER3
 10
11554.867643145941
 20
8966.0898219827432
 30
0.0
 70
    32
  0
VERTEX
  5
37C
  8
LAYER3
 10
11646.56764314594
 20
8921.1898219827417
 30
0.0
 70
    32
  0
VERTEX
  5
37D
  8
LAYER3
 10
11742.167643145929
 20
8876.8898219827479
 30
0.0
 70
    32
  0
VERTEX
  5
37E
  8
LAYER3
 10
11841.56764314594
 20
8833.2898219827475
 30
0.0
 70
    32
  0
VERTEX
  5
37F
  8
LAYER3
 10
11944.76764314594
 20
8790.3898219827479
 30
0.0
 70
    32
  0
VERTEX
  5
380
  8
LAYER3
 10
12051.667643145929
 20
8748.1898219827417
 30
0.0
 70
    32
  0
VERTEX
  5
381
  8
LAYER3
 10
12162.167643145929
 20
8706.7898219827493
 30
0.0
 70
    32
  0
VERTEX
  5
382
  8
LAYER3
 10
12276.167643145929
 20
8666.1898219827417
 30
0.0
 70
    32
  0
VERTEX
  5
383
  8
LAYER3
 10
12393.76764314594
 20
8626.2898219827475
 30
0.0
 70
    32
  0
VERTEX
  5
384
  8
LAYER3
 10
12514.76764314594
 20
8587.3898219827461
 30
0.0
 70
    32
  0
VERTEX
  5
385
  8
LAYER3
 10
12639.06764314594
 20
8549.1898219827417
 30
0.0
 70
    32
  0
VERTEX
  5
386
  8
LAYER3
 10
12766.667643145929
 20
8511.9898219827446
 30
0.0
 70
    32
  0
VERTEX
  5
387
  8
LAYER3
 10
12897.367643145941
 20
8475.5898219827413
 30
0.0
 70
    32
  0
VERTEX
  5
388
  8
LAYER3
 10
13031.26764314594
 20
8440.1898219827417
 30
0.0
 70
    32
  0
VERTEX
  5
389
  8
LAYER3
 10
13168.26764314594
 20
8405.6898219827417
 30
0.0
 70
    32
  0
VERTEX
  5
38A
  8
LAYER3
 10
13308.167643145929
 20
8372.1898219827417
 30
0.0
 70
    32
  0
VERTEX
  5
38B
  8
LAYER3
 10
13450.867643145941
 20
8339.6898219827435
 30
0.0
 70
    32
  0
VERTEX
  5
38C
  8
LAYER3
 10
13596.367643145941
 20
8308.0898219827432
 30
0.0
 70
    32
  0
VERTEX
  5
38D
  8
LAYER3
 10
13744.667643145929
 20
8277.5898219827432
 30
0.0
 70
    32
  0
VERTEX
  5
38E
  8
LAYER3
 10
13895.46764314593
 20
8248.1898219827417
 30
0.0
 70
    32
  0
VERTEX
  5
38F
  8
LAYER3
 10
14048.76764314594
 20
8219.7898219827475
 30
0.0
 70
    32
  0
VERTEX
  5
390
  8
LAYER3
 10
14204.56764314594
 20
8192.4898219827446
 30
0.0
 70
    32
  0
VERTEX
  5
391
  8
LAYER3
 10
14362.56764314594
 20
8166.2898219827493
 30
0.0
 70
    32
  0
VERTEX
  5
392
  8
LAYER3
 10
14522.867643145941
 20
8141.1898219827417
 30
0.0
 70
    32
  0
VERTEX
  5
393
  8
LAYER3
 10
14685.367643145941
 20
8117.1898219827408
 30
0.0
 70
    32
  0
VERTEX
  5
394
  8
LAYER3
 10
14849.76764314594
 20
8094.2898219827484
 30
0.0
 70
    32
  0
VERTEX
  5
395
  8
LAYER3
 10
15016.167643145929
 20
8072.6898219827408
 30
0.0
 70
    32
  0
VERTEX
  5
396
  8
LAYER3
 10
15184.46764314593
 20
8052.0898219827432
 30
0.0
 70
    32
  0
VERTEX
  5
397
  8
LAYER3
 10
15354.367643145941
 20
8032.7898219827466
 30
0.0
 70
    32
  0
VERTEX
  5
398
  8
LAYER3
 10
15525.96764314593
 20
8014.6898219827417
 30
0.0
 70
    32
  0
VERTEX
  5
399
  8
LAYER3
 10
15699.06764314594
 20
7997.6898219827417
 30
0.0
 70
    32
  0
VERTEX
  5
39A
  8
LAYER3
 10
15873.56764314594
 20
7981.9898219827446
 30
0.0
 70
    32
  0
VERTEX
  5
39B
  8
LAYER3
 10
16049.46764314593
 20
7967.4898219827446
 30
0.0
 70
    32
  0
VERTEX
  5
39C
  8
LAYER3
 10
16226.46764314593
 20
7954.1898219827408
 30
0.0
 70
    32
  0
VERTEX
  5
39D
  8
LAYER3
 10
16404.56764314594
 20
7942.1898219827408
 30
0.0
 70
    32
  0
VERTEX
  5
39E
  8
LAYER3
 10
16583.76764314594
 20
7931.389821982747
 30
0.0
 70
    32
  0
VERTEX
  5
39F
  8
LAYER3
 10
16763.76764314594
 20
7921.8898219827461
 30
0.0
 70
    32
  0
VERTEX
  5
3A0
  8
LAYER3
 10
16944.56764314594
 20
7913.5898219827441
 30
0.0
 70
    32
  0
VERTEX
  5
3A1
  8
LAYER3
 10
17125.96764314593
 20
7906.5898219827432
 30
0.0
 70
    32
  0
VERTEX
  5
3A2
  8
LAYER3
 10
17307.96764314593
 20
7900.7898219827484
 30
0.0
 70
    32
  0
VERTEX
  5
3A3
  8
LAYER3
 10
17490.367643145939
 20
7896.3898219827452
 30
0.0
 70
    32
  0
VERTEX
  5
3A4
  8
LAYER3
 10
17673.167643145931
 20
7893.1898219827408
 30
0.0
 70
    32
  0
VERTEX
  5
3A5
  8
LAYER3
 10
17856.167643145931
 20
7891.2898219827484
 30
0.0
 70
    32
  0
VERTEX
  5
3A6
  8
LAYER3
 10
18039.26764314594
 20
7890.5898219827432
 30
0.0
 70
    32
  0
VERTEX
  5
3A7
  8
LAYER3
 10
18222.367643145939
 20
7891.2898219827484
 30
0.0
 70
    32
  0
VERTEX
  5
3A8
  8
LAYER3
 10
18405.367643145939
 20
7893.1898219827408
 30
0.0
 70
    32
  0
VERTEX
  5
3A9
  8
LAYER3
 10
18588.167643145931
 20
7896.3898219827452
 30
0.0
 70
    32
  0
VERTEX
  5
3AA
  8
LAYER3
 10
18770.56764314594
 20
7900.7898219827484
 30
0.0
 70
    32
  0
VERTEX
  5
3AB
  8
LAYER3
 10
18952.56764314594
 20
7906.5898219827432
 30
0.0
 70
    32
  0
VERTEX
  5
3AC
  8
LAYER3
 10
19134.06764314594
 20
7913.5898219827441
 30
0.0
 70
    32
  0
VERTEX
  5
3AD
  8
LAYER3
 10
19314.867643145939
 20
7921.8898219827461
 30
0.0
 70
    32
  0
VERTEX
  5
3AE
  8
LAYER3
 10
19494.867643145939
 20
7931.389821982747
 30
0.0
 70
    32
  0
VERTEX
  5
3AF
  8
LAYER3
 10
19673.96764314593
 20
7942.1898219827408
 30
0.0
 70
    32
  0
VERTEX
  5
3B0
  8
LAYER3
 10
19852.06764314594
 20
7954.1898219827408
 30
0.0
 70
    32
  0
VERTEX
  5
3B1
  8
LAYER3
 10
20029.167643145931
 20
7967.4898219827446
 30
0.0
 70
    32
  0
VERTEX
  5
3B2
  8
LAYER3
 10
20204.96764314593
 20
7981.9898219827446
 30
0.0
 70
    32
  0
VERTEX
  5
3B3
  8
LAYER3
 10
20379.46764314593
 20
7997.6898219827417
 30
0.0
 70
    32
  0
VERTEX
  5
3B4
  8
LAYER3
 10
20552.56764314594
 20
8014.6898219827417
 30
0.0
 70
    32
  0
VERTEX
  5
3B5
  8
LAYER3
 10
20724.167643145931
 20
8032.7898219827466
 30
0.0
 70
    32
  0
VERTEX
  5
3B6
  8
LAYER3
 10
20894.167643145931
 20
8052.0898219827432
 30
0.0
 70
    32
  0
VERTEX
  5
3B7
  8
LAYER3
 10
21062.367643145939
 20
8072.6898219827408
 30
0.0
 70
    32
  0
VERTEX
  5
3B8
  8
LAYER3
 10
21228.76764314594
 20
8094.2898219827484
 30
0.0
 70
    32
  0
VERTEX
  5
3B9
  8
LAYER3
 10
21393.26764314594
 20
8117.1898219827408
 30
0.0
 70
    32
  0
VERTEX
  5
3BA
  8
LAYER3
 10
21555.667643145931
 20
8141.1898219827417
 30
0.0
 70
    32
  0
VERTEX
  5
3BB
  8
LAYER3
 10
21715.96764314593
 20
8166.2898219827493
 30
0.0
 70
    32
  0
VERTEX
  5
3BC
  8
LAYER3
 10
21874.06764314594
 20
8192.4898219827446
 30
0.0
 70
    32
  0
VERTEX
  5
3BD
  8
LAYER3
 10
22029.76764314594
 20
8219.7898219827475
 30
0.0
 70
    32
  0
VERTEX
  5
3BE
  8
LAYER3
 10
22183.167643145931
 20
8248.1898219827417
 30
0.0
 70
    32
  0
VERTEX
  5
3BF
  8
LAYER3
 10
22333.96764314593
 20
8277.5898219827432
 30
0.0
 70
    32
  0
VERTEX
  5
3C0
  8
LAYER3
 10
22482.167643145931
 20
8308.0898219827432
 30
0.0
 70
    32
  0
VERTEX
  5
3C1
  8
LAYER3
 10
22627.667643145931
 20
8339.6898219827435
 30
0.0
 70
    32
  0
VERTEX
  5
3C2
  8
LAYER3
 10
22770.46764314593
 20
8372.1898219827417
 30
0.0
 70
    32
  0
VERTEX
  5
3C3
  8
LAYER3
 10
22910.367643145939
 20
8405.6898219827417
 30
0.0
 70
    32
  0
VERTEX
  5
3C4
  8
LAYER3
 10
23047.26764314594
 20
8440.1898219827417
 30
0.0
 70
    32
  0
VERTEX
  5
3C5
  8
LAYER3
 10
23181.167643145931
 20
8475.5898219827413
 30
0.0
 70
    32
  0
VERTEX
  5
3C6
  8
LAYER3
 10
23311.96764314593
 20
8511.9898219827446
 30
0.0
 70
    32
  0
VERTEX
  5
3C7
  8
LAYER3
 10
23439.56764314594
 20
8549.1898219827417
 30
0.0
 70
    32
  0
VERTEX
  5
3C8
  8
LAYER3
 10
23563.867643145939
 20
8587.3898219827461
 30
0.0
 70
    32
  0
VERTEX
  5
3C9
  8
LAYER3
 10
23684.867643145939
 20
8626.2898219827475
 30
0.0
 70
    32
  0
VERTEX
  5
3CA
  8
LAYER3
 10
23802.367643145939
 20
8666.1898219827417
 30
0.0
 70
    32
  0
VERTEX
  5
3CB
  8
LAYER3
 10
23916.46764314593
 20
8706.7898219827493
 30
0.0
 70
    32
  0
VERTEX
  5
3CC
  8
LAYER3
 10
24026.967643145941
 20
8748.1898219827417
 30
0.0
 70
    32
  0
VERTEX
  5
3CD
  8
LAYER3
 10
24133.76764314594
 20
8790.3898219827479
 30
0.0
 70
    32
  0
VERTEX
  5
3CE
  8
LAYER3
 10
24236.96764314593
 20
8833.2898219827475
 30
0.0
 70
    32
  0
VERTEX
  5
3CF
  8
LAYER3
 10
24336.367643145939
 20
8876.8898219827479
 30
0.0
 70
    32
  0
VERTEX
  5
3D0
  8
LAYER3
 10
24431.96764314593
 20
8921.1898219827417
 30
0.0
 70
    32
  0
VERTEX
  5
3D1
  8
LAYER3
 10
24523.767643145929
 20
8966.0898219827432
 30
0.0
 70
    32
  0
VERTEX
  5
3D2
  8
LAYER3
 10
24611.56764314594
 20
9011.6898219827417
 30
0.0
 70
    32
  0
VERTEX
  5
3D3
  8
LAYER3
 10
24695.367643145939
 20
9057.8898219827461
 30
0.0
 70
    32
  0
VERTEX
  5
3D4
  8
LAYER3
 10
24775.167643145931
 20
9104.5898219827432
 30
0.0
 70
    32
  0
VERTEX
  5
3D5
  8
LAYER3
 10
24850.867643145939
 20
9151.8898219827479
 30
0.0
 70
    32
  0
VERTEX
  5
3D6
  8
LAYER3
 10
24922.467643145941
 20
9199.6898219827417
 30
0.0
 70
    32
  0
VERTEX
  5
3D7
  8
LAYER3
 10
24989.867643145939
 20
9247.9898219827446
 30
0.0
 70
    32
  0
VERTEX
  5
3D8
  8
LAYER3
 10
25053.06764314594
 20
9296.6898219827417
 30
0.0
 70
    32
  0
VERTEX
  5
3D9
  8
LAYER3
 10
25112.06764314594
 20
9345.8898219827461
 30
0.0
 70
    32
  0
VERTEX
  5
3DA
  8
LAYER3
 10
25166.76764314594
 20
9395.4898219827446
 30
0.0
 70
    32
  0
VERTEX
  5
3DB
  8
LAYER3
 10
25217.06764314594
 20
9445.3898219827479
 30
0.0
 70
    32
  0
VERTEX
  5
3DC
  8
LAYER3
 10
25263.06764314594
 20
9495.6898219827417
 30
0.0
 70
    32
  0
VERTEX
  5
3DD
  8
LAYER3
 10
25304.76764314594
 20
9546.1898219827417
 30
0.0
 70
    32
  0
VERTEX
  5
3DE
  8
LAYER3
 10
25341.96764314593
 20
9597.0898219827432
 30
0.0
 70
    32
  0
VERTEX
  5
3DF
  8
LAYER3
 10
25374.76764314594
 20
9648.1898219827417
 30
0.0
 70
    32
  0
VERTEX
  5
3E0
  8
LAYER3
 10
25403.167643145931
 20
9699.4898219827446
 30
0.0
 70
    32
  0
VERTEX
  5
3E1
  8
LAYER3
 10
25427.06764314594
 20
9750.9898219827446
 30
0.0
 70
    32
  0
VERTEX
  5
3E2
  8
LAYER3
 10
25446.467643145941
 20
9802.5898219827432
 30
0.0
 70
    32
  0
VERTEX
  5
3E3
  8
LAYER3
 10
25461.367643145939
 20
9854.3898219827479
 30
0.0
 70
    32
  0
VERTEX
  5
3E4
  8
LAYER3
 10
25471.867643145939
 20
9906.1898219827417
 30
0.0
 70
    32
  0
VERTEX
  5
3E5
  8
LAYER3
 10
25477.76764314594
 20
9958.0898219827432
 30
0.0
 70
    32
  0
VERTEX
  5
3E6
  8
LAYER3
 10
25479.167643145931
 20
10010.08982198274
 30
0.0
 70
    32
  0
SEQEND
  5
3E7
  8
0
  0
ARC
  5
3E8
  8
LAYER3
 10
18039.28607666917
 20
15200.60386272808
 30
0.0
 40
7140.0
 50
3.301865674314949
 51
176.698134325685
  0
ARC
  5
3E9
  8
LAYER3
 10
20565.848347907238
 20
15839.78309495993
 30
0.0
 40
5496.6053586058297
 50
13.668304134459349
 51
166.30138255725339
  0
ARC
  5
3EA
  8
LAYER3
 10
19264.28607666917
 20
10500.000113955
 30
0.0
 40
5496.6053586058297
 50
166.30138255725339
 51
269.98757083653152
  0
DIMENSION
  5
3EB
  8
LAYER3
  2
*D2
 10
18039.286076669159
 20
13067.287347997561
 30
0.0
 11
15533.452445620511
 21
11983.10357476977
 31
0.0
 12
-60576.21110039542
 22
-37328.010178017248
 32
0.0
 70
     1
  3
ISO-25
 13
14339.28607666917
 23
8150.0001139550213
 33
0.0
 14
19264.28607666917
 24
10500.000113955
 34
0.0
1001
ACAD
1000
DSTYLE
1002
{
1070
   287
1070
     3
1070
    41
1040
200.0
1070
   140
1040
200.0
1070
   274
1070
     2
1070
   279
1070
     0
1070
   284
1070
     0
1070
   285
1070
     0
1070
   286
1070
     0
1002
}
  0
DIMENSION
  5
3EC
  8
LAYER3
  2
*D3
 10
13452.71283406415
 20
9778.8463901260275
 30
0.0
 11
15104.607325694589
 21
10792.52954471094
 31
0.0
 12
-60576.21110039542
 22
-37328.010178017248
 32
0.0
 70
     1
  3
ISO-25
 13
17739.28607666917
 23
10000.60386272808
 33
0.0
 14
14339.28607666917
 24
8150.0001139550213
 34
0.0
1001
ACAD
1000
DSTYLE
1002
{
1070
   287
1070
     3
1070
    41
1040
200.0
1070
   140
1040
200.0
1070
   274
1070
     2
1070
   279
1070
     0
1070
   284
1070
     0
1070
   285
1070
     0
1070
   286
1070
     0
1002
}
  0
LINE
  5
3ED
  8
LAYER3
 10
19264.28607666917
 20
10500.000113955
 30
0.0
 11
14339.28607666917
 21
8150.0001139550213
 31
0.0
  0
DIMENSION
  5
3EE
  8
LAYER3
  2
*D4
 10
14339.28607666917
 20
8150.0001139550213
 30
0.0
 11
14816.697508527839
 21
9256.7523426731423
 31
0.0
 12
-60576.21110039542
 22
-37328.010178017248
 32
0.0
 70
     2
  3
ISO-25
 13
17739.28607666917
 23
10000.60386272808
 33
0.0
 14
14361.15810024331
 24
10000.60386272808
 34
0.0
 15
17739.28607666917
 25
10000.60386272808
 35
0.0
 16
14665.812866581949
 26
9485.1918309236062
 36
0.0
1001
ACAD
1000
DSTYLE
1002
{
1070
   287
1070
     3
1070
   271
1070
     0
1070
    41
1040
200.0
1070
   140
1040
200.0
1070
   274
1070
     2
1070
   279
1070
     0
1070
   284
1070
     0
1070
   285
1070
     0
1070
   286
1070
     0
1002
}
  0
LINE
  5
3EF
  8
LAYER3
 10
17739.28607666917
 20
10000.60386272808
 30
0.0
 11
14361.15810024331
 21
10000.60386272808
 31
0.0
  0
LINE
  5
3F0
  8
LAYER3
 10
17739.28607666917
 20
10000.60386272808
 30
0.0
 11
14339.28607666917
 21
8150.0001139550213
 31
0.0
  0
ARC
  5
3F1
  8
LAYER3
 10
20564.28607666917
 20
8500.0001139550222
 30
0.0
 40
5500.0
 50
89.632611086452229
 51
270.0
1001
ACAD
1000
ASC_BOUNDS
1002
{
1070
    19
1005
0
1002
}
  0
LINE
  5
3F2
  8
LAYER6
 10
19964.28607666917
 20
6000.0001139550368
 30
0.0
 11
3089.2860766691879
 21
6000.0001139550368
 31
0.0
  0
LINE
  5
3F3
  8
LAYER6
 10
19964.28607666917
 20
8150.0001139550213
 30
0.0
 11
14339.286076669179
 21
8150.0001139550213
 31
0.0
  0
LINE
  5
3F4
  8
LAYER1
 10
0.0001054702443071
 20
0.0001139550222433
 30
0.0
 11
33964.518067575533
 21
0.0001139550222433
 31
0.0
  0
LINE
  5
3F5
  8
LAYER4
 10
9493.0790795681969
 20
8150.0001139550213
 30
0.0
 11
9493.0790795681969
 21
23389.424913923489
 31
0.0
  0
LINE
  5
3F6
  8
LAYER3
 10
10911.138893105321
 20
15611.8431233183
 30
0.0
 11
10600.215573062071
 21
10033.955816100281
 31
0.0
  0
LINE
  5
3F7
  8
LAYER3
 10
13924.03256629192
 20
11801.677075861349
 30
0.0
 11
15225.59483752999
 21
17141.460056866279
 31
0.0
  0
LINE
  5
3F8
  8
LAYER4
 10
14339.28607666917
 20
8150.0001139550277
 30
0.0
 11
14339.286076669179
 21
0.0001139550222433
 31
0.0
  0
LINE
  5
3F9
  8
LAYER6
 10
8714.2860766691738
 20
0.0001139550222433
 30
0.0
 11
8714.2860766691738
 21
8150.0001139550213
 31
0.0
  0
LINE
  5
3FA
  8
LAYER6
 10
3089.2860766691879
 20
0.0001139550222433
 30
0.0
 11
3089.2860766691879
 21
8150.0001139550213
 31
0.0
  0
POLYLINE
  5
3FB
  8
LAYER6
 66
     1
 10
0.0
 20
0.0
 30
0.0
 70
     1
  0
VERTEX
  5
B69
  8
LAYER6
 10
3734.9628538984248
 20
933.96382204761903
 30
0.0
  0
VERTEX
  5
B6A
  8
LAYER6
 10
5320.7383443400749
 20
933.96382204761903
 30
0.0
  0
VERTEX
  5
B6B
  8
LAYER6
 10
5320.7383443400749
 20
2109.573603514923
 30
0.0
  0
VERTEX
  5
B6C
  8
LAYER6
 10
3734.9628538984248
 20
2109.573603514923
 30
0.0
  0
SEQEND
  5
B6D
  8
LAYER6
  0
POLYLINE
  5
3FC
  8
LAYER6
 66
     1
 10
0.0
 20
0.0
 30
0.0
 70
     1
  0
VERTEX
  5
B6E
  8
LAYER6
 10
3681.5097280924242
 20
862.71472759186872
 30
0.0
  0
VERTEX
  5
B6F
  8
LAYER6
 10
5374.1914701460482
 20
862.71472759186872
 30
0.0
  0
VERTEX
  5
B70
  8
LAYER6
 10
5374.1914701460482
 20
2163.0104243567539
 30
0.0
  0
VERTEX
  5
B71
  8
LAYER6
 10
3681.5097280924242
 20
2163.0104243567539
 30
0.0
  0
SEQEND
  5
B72
  8
LAYER6
  0
POLYLINE
  5
3FD
  8
LAYER6
 66
     1
 10
0.0
 20
0.0
 30
0.0
 70
     1
  0
VERTEX
  5
B73
  8
LAYER6
 10
6207.2483052342141
 20
933.96382204761903
 30
0.0
  0
VERTEX
  5
B74
  8
LAYER6
 10
7793.0237956758638
 20
933.96382204761903
 30
0.0
  0
VERTEX
  5
B75
  8
LAYER6
 10
7793.0237956758638
 20
2109.573603514923
 30
0.0
  0
VERTEX
  5
B76
  8
LAYER6
 10
6207.2483052342141
 20
2109.573603514923
 30
0.0
  0
SEQEND
  5
B77
  8
LAYER6
  0
POLYLINE
  5
3FE
  8
LAYER6
 66
     1
 10
0.0
 20
0.0
 30
0.0
 70
     1
  0
VERTEX
  5
B78
  8
LAYER6
 10
6153.7951794282271
 20
862.71472759186872
 30
0.0
  0
VERTEX
  5
B79
  8
LAYER6
 10
7846.4769214818507
 20
862.71472759186872
 30
0.0
  0
VERTEX
  5
B7A
  8
LAYER6
 10
7846.4769214818507
 20
2163.0104243567539
 30
0.0
  0
VERTEX
  5
B7B
  8
LAYER6
 10
6153.7951794282271
 20
2163.0104243567539
 30
0.0
  0
SEQEND
  5
B7C
  8
LAYER6
  0
POLYLINE
  5
3FF
  8
LAYER6
 66
     1
 10
0.0
 20
0.0
 30
0.0
 70
     1
  0
VERTEX
  5
B7D
  8
LAYER6
 10
11980.183867252381
 20
933.96382204761903
 30
0.0
  0
VERTEX
  5
B7E
  8
LAYER6
 10
13565.95935769403
 20
933.96382204761903
 30
0.0
  0
VERTEX
  5
B7F
  8
LAYER6
 10
13565.95935769403
 20
2109.573603514923
 30
0.0
  0
VERTEX
  5
B80
  8
LAYER6
 10
11980.183867252381
 20
2109.573603514923
 30
0.0
  0
SEQEND
  5
B81
  8
LAYER6
  0
POLYLINE
  5
400
  8
LAYER6
 66
     1
 10
0.0
 20
0.0
 30
0.0
 70
     1
  0
VERTEX
  5
B82
  8
LAYER6
 10
11926.730741446379
 20
862.71472759186872
 30
0.0
  0
VERTEX
  5
B83
  8
LAYER6
 10
13619.412483499989
 20
862.71472759186872
 30
0.0
  0
VERTEX
  5
B84
  8
LAYER6
 10
13619.412483499989
 20
2163.0104243567539
 30
0.0
  0
VERTEX
  5
B85
  8
LAYER6
 10
11926.730741446379
 20
2163.0104243567539
 30
0.0
  0
SEQEND
  5
B86
  8
LAYER6
  0
POLYLINE
  5
401
  8
LAYER6
 66
     1
 10
0.0
 20
0.0
 30
0.0
 70
     1
  0
VERTEX
  5
B87
  8
LAYER6
 10
9454.4452901105815
 20
862.71472759186872
 30
0.0
  0
VERTEX
  5
B88
  8
LAYER6
 10
11147.127032164201
 20
862.71472759186872
 30
0.0
  0
VERTEX
  5
B89
  8
LAYER6
 10
11147.127032164201
 20
2163.0104243567539
 30
0.0
  0
VERTEX
  5
B8A
  8
LAYER6
 10
9454.4452901105815
 20
2163.0104243567539
 30
0.0
  0
SEQEND
  5
B8B
  8
LAYER6
  0
POLYLINE
  5
402
  8
LAYER6
 66
     1
 10
0.0
 20
0.0
 30
0.0
 70
     1
  0
VERTEX
  5
B8C
  8
LAYER6
 10
9507.8984159165848
 20
933.96382204761903
 30
0.0
  0
VERTEX
  5
B8D
  8
LAYER6
 10
11093.67390635823
 20
933.96382204761903
 30
0.0
  0
VERTEX
  5
B8E
  8
LAYER6
 10
11093.67390635823
 20
2109.573603514923
 30
0.0
  0
VERTEX
  5
B8F
  8
LAYER6
 10
9507.8984159165848
 20
2109.573603514923
 30
0.0
  0
SEQEND
  5
B90
  8
LAYER6
  0
LINE
  5
403
  8
LAYER6
 10
9493.0790795681969
 20
8150.0001139550213
 30
0.0
 11
3089.2860766691879
 21
8150.0001139550213
 31
0.0
  0
POLYLINE
  5
404
  8
LAYER6
 66
     1
 10
0.0
 20
0.0
 30
0.0
 70
     1
  0
VERTEX
  5
B91
  8
LAYER6
 10
3681.5097280924242
 20
4086.7359026611148
 30
0.0
  0
VERTEX
  5
B92
  8
LAYER6
 10
5374.1914701460482
 20
4086.7359026611148
 30
0.0
  0
VERTEX
  5
B93
  8
LAYER6
 10
5374.1914701460482
 20
5387.0315994260163
 30
0.0
  0
VERTEX
  5
B94
  8
LAYER6
 10
3681.5097280924242
 20
5387.0315994260163
 30
0.0
  0
SEQEND
  5
B95
  8
LAYER6
  0
POLYLINE
  5
405
  8
LAYER6
 66
     1
 10
0.0
 20
0.0
 30
0.0
 70
     1
  0
VERTEX
  5
B96
  8
LAYER6
 10
3734.9628538984248
 20
4157.9849971168869
 30
0.0
  0
VERTEX
  5
B97
  8
LAYER6
 10
5320.7383443400749
 20
4157.9849971168869
 30
0.0
  0
VERTEX
  5
B98
  8
LAYER6
 10
5320.7383443400749
 20
5333.5947785841854
 30
0.0
  0
VERTEX
  5
B99
  8
LAYER6
 10
3734.9628538984248
 20
5333.5947785841854
 30
0.0
  0
SEQEND
  5
B9A
  8
LAYER6
  0
POLYLINE
  5
406
  8
LAYER6
 66
     1
 10
0.0
 20
0.0
 30
0.0
 70
     1
  0
VERTEX
  5
B9B
  8
LAYER6
 10
6153.7951794282271
 20
4086.7359026611148
 30
0.0
  0
VERTEX
  5
B9C
  8
LAYER6
 10
7846.4769214818507
 20
4086.7359026611148
 30
0.0
  0
VERTEX
  5
B9D
  8
LAYER6
 10
7846.4769214818507
 20
5387.0315994260163
 30
0.0
  0
VERTEX
  5
B9E
  8
LAYER6
 10
6153.7951794282271
 20
5387.0315994260163
 30
0.0
  0
SEQEND
  5
B9F
  8
LAYER6
  0
POLYLINE
  5
407
  8
LAYER6
 66
     1
 10
0.0
 20
0.0
 30
0.0
 70
     1
  0
VERTEX
  5
BA0
  8
LAYER6
 10
6207.2483052342141
 20
4157.9849971168869
 30
0.0
  0
VERTEX
  5
BA1
  8
LAYER6
 10
7793.0237956758638
 20
4157.9849971168869
 30
0.0
  0
VERTEX
  5
BA2
  8
LAYER6
 10
7793.0237956758638
 20
5333.5947785841854
 30
0.0
  0
VERTEX
  5
BA3
  8
LAYER6
 10
6207.2483052342141
 20
5333.5947785841854
 30
0.0
  0
SEQEND
  5
BA4
  8
LAYER6
  0
POLYLINE
  5
408
  8
LAYER6
 66
     1
 10
0.0
 20
0.0
 30
0.0
 70
     1
  0
VERTEX
  5
BA5
  8
LAYER6
 10
11926.730741446379
 20
4086.7359026611148
 30
0.0
  0
VERTEX
  5
BA6
  8
LAYER6
 10
13619.412483499989
 20
4086.7359026611148
 30
0.0
  0
VERTEX
  5
BA7
  8
LAYER6
 10
13619.412483499989
 20
5387.0315994260163
 30
0.0
  0
VERTEX
  5
BA8
  8
LAYER6
 10
11926.730741446379
 20
5387.0315994260163
 30
0.0
  0
SEQEND
  5
BA9
  8
LAYER6
  0
POLYLINE
  5
409
  8
LAYER6
 66
     1
 10
0.0
 20
0.0
 30
0.0
 70
     1
  0
VERTEX
  5
BAA
  8
LAYER6
 10
11980.183867252381
 20
4157.9849971168869
 30
0.0
  0
VERTEX
  5
BAB
  8
LAYER6
 10
13565.95935769403
 20
4157.9849971168869
 30
0.0
  0
VERTEX
  5
BAC
  8
LAYER6
 10
13565.95935769403
 20
5333.5947785841854
 30
0.0
  0
VERTEX
  5
BAD
  8
LAYER6
 10
11980.183867252381
 20
5333.5947785841854
 30
0.0
  0
SEQEND
  5
BAE
  8
LAYER6
  0
POLYLINE
  5
40A
  8
LAYER6
 66
     1
 10
0.0
 20
0.0
 30
0.0
 70
     1
  0
VERTEX
  5
BAF
  8
LAYER6
 10
9507.8984159165848
 20
4157.9849971168869
 30
0.0
  0
VERTEX
  5
BB0
  8
LAYER6
 10
11093.67390635823
 20
4157.9849971168869
 30
0.0
  0
VERTEX
  5
BB1
  8
LAYER6
 10
11093.67390635823
 20
5333.5947785841854
 30
0.0
  0
VERTEX
  5
BB2
  8
LAYER6
 10
9507.8984159165848
 20
5333.5947785841854
 30
0.0
  0
SEQEND
  5
BB3
  8
LAYER6
  0
POLYLINE
  5
40B
  8
LAYER6
 66
     1
 10
0.0
 20
0.0
 30
0.0
 70
     1
  0
VERTEX
  5
BB4
  8
LAYER6
 10
9454.4452901105815
 20
4086.7359026611148
 30
0.0
  0
VERTEX
  5
BB5
  8
LAYER6
 10
11147.127032164201
 20
4086.7359026611148
 30
0.0
  0
VERTEX
  5
BB6
  8
LAYER6
 10
11147.127032164201
 20
5387.0315994260163
 30
0.0
  0
VERTEX
  5
BB7
  8
LAYER6
 10
9454.4452901105815
 20
5387.0315994260163
 30
0.0
  0
SEQEND
  5
BB8
  8
LAYER6
  0
LINE
  5
40C
  8
LAYER4
 10
9493.0790795681969
 20
8150.0001139550213
 30
0.0
 11
14339.286076669179
 21
8150.0001139550213
 31
0.0
  0
LINE
  5
40D
  8
LAYER4
 10
30793.80018397946
 20
23389.424913923489
 30
0.0
 11
30793.80018397946
 21
3000.000113955015
 31
0.0
  0
LINE
  5
40E
  8
LAYER3
 10
25167.433260233011
 20
15611.8431233183
 30
0.0
 11
25478.356580276271
 21
10033.955816100281
 31
0.0
  0
ARC
  5
40F
  8
LAYER3
 10
24776.126140618049
 20
8500.0001139550222
 30
0.0
 40
5500.0
 50
270.0
 51
93.836265460552013
  0
LINE
  5
410
  8
LAYER3
 10
25906.789785224461
 20
17138.634522722969
 30
0.0
 11
27205.496666974279
 21
11798.28746577536
 31
0.0
  0
LINE
  5
411
  8
LAYER2
 10
18039.28607666917
 20
10000.00011395502
 30
0.0
 11
18039.28607666917
 21
15200.60386272808
 31
0.0
  0
LINE
  5
412
  8
LAYER2
 10
20564.28607666917
 20
10500.000113955
 30
0.0
 11
20564.28607666917
 21
15100.000113955
 31
0.0
  0
LINE
  5
413
  8
LAYER6
 10
19964.28607666917
 20
8150.0001139550213
 30
0.0
 11
19964.28607666917
 21
0.0001139550222433
 31
0.0
  0
LINE
  5
414
  8
LAYER6
 10
24464.28607666917
 20
2800.0001139550218
 30
0.0
 11
24464.28607666917
 21
0.0001139550222433
 31
0.0
  0
LINE
  5
415
  8
LAYER4
 10
25479.28607666917
 20
3000.000113955015
 30
0.0
 11
25479.28607666917
 21
0.0001139550222433
 31
0.0
  0
POLYLINE
  5
416
  8
LAYER6
 66
     1
 10
0.0
 20
0.0
 30
0.0
 70
     1
  0
VERTEX
  5
BB9
  8
LAYER6
 10
20568.316651588219
 20
791.46559709452413
 30
0.0
  0
VERTEX
  5
BBA
  8
LAYER6
 10
24096.22189744981
 20
791.46559709452413
 30
0.0
  0
VERTEX
  5
BBB
  8
LAYER6
 10
24096.22189744981
 20
2234.2596280714711
 30
0.0
  0
VERTEX
  5
BBC
  8
LAYER6
 10
20568.316651588219
 20
2234.2596280714711
 30
0.0
  0
SEQEND
  5
BBD
  8
LAYER6
  0
POLYLINE
  5
417
  8
LAYER6
 66
     1
 10
0.0
 20
0.0
 30
0.0
 70
     1
  0
VERTEX
  5
BBE
  8
LAYER6
 10
20621.769813405699
 20
844.90247943129361
 30
0.0
  0
VERTEX
  5
BBF
  8
LAYER6
 10
24042.76873563234
 20
844.90247943129361
 30
0.0
  0
VERTEX
  5
BC0
  8
LAYER6
 10
24042.76873563234
 20
2163.0104975741478
 30
0.0
  0
VERTEX
  5
BC1
  8
LAYER6
 10
20621.769813405699
 20
2163.0104975741478
 30
0.0
  0
SEQEND
  5
BC2
  8
LAYER6
  0
POLYLINE
  5
418
  8
LAYER6
 66
     1
 10
0.0
 20
0.0
 30
0.0
 70
     1
  0
VERTEX
  5
BC3
  8
LAYER6
 10
17628.395839990611
 20
933.96382204761903
 30
0.0
  0
VERTEX
  5
BC4
  8
LAYER6
 10
19214.171330432269
 20
933.96382204761903
 30
0.0
  0
VERTEX
  5
BC5
  8
LAYER6
 10
19214.171330432269
 20
2109.573603514923
 30
0.0
  0
VERTEX
  5
BC6
  8
LAYER6
 10
17628.395839990611
 20
2109.573603514923
 30
0.0
  0
SEQEND
  5
BC7
  8
LAYER6
  0
POLYLINE
  5
419
  8
LAYER6
 66
     1
 10
0.0
 20
0.0
 30
0.0
 70
     1
  0
VERTEX
  5
BC8
  8
LAYER6
 10
17574.942714184639
 20
862.71472759186872
 30
0.0
  0
VERTEX
  5
BC9
  8
LAYER6
 10
19267.62445623826
 20
862.71472759186872
 30
0.0
  0
VERTEX
  5
BCA
  8
LAYER6
 10
19267.62445623826
 20
2163.0104243567539
 30
0.0
  0
VERTEX
  5
BCB
  8
LAYER6
 10
17574.942714184639
 20
2163.0104243567539
 30
0.0
  0
SEQEND
  5
BCC
  8
LAYER6
  0
LINE
  5
41A
  8
LAYER3
 10
20564.28607666917
 20
3000.0001139550218
 30
0.0
 11
24776.126140618049
 21
3000.000113955015
 31
0.0
  0
ARC
  5
41B
  8
LAYER3
 10
21864.555229657009
 20
10499.436038012331
 30
0.0
 40
5496.6053586058297
 50
269.98757083653152
 51
13.668304134459349
  0
LINE
  5
41C
  8
LAYER2
 10
20564.28607666917
 20
8500.0001139550222
 30
0.0
 11
24776.126140618049
 21
8500.0001139550222
 31
0.0
  0
LINE
  5
41D
  8
LAYER6
 10
24464.28607666917
 20
2800.0001139550218
 30
0.0
 11
19964.28607666917
 21
2800.0001139550218
 31
0.0
  0
LINE
  5
41E
  8
LAYER6
 10
23964.28607666917
 20
5850.0001139550368
 30
0.0
 11
19964.28607666917
 21
5850.0001139550368
 31
0.0
  0
LINE
  5
41F
  8
LAYER6
 10
23964.28607666917
 20
3800.000113955015
 30
0.0
 11
19964.28607666917
 21
3800.000113955015
 31
0.0
1001
ACAD
1000
ASC_BOUNDS
1002
{
1070
    19
1005
0
1002
}
  0
LINE
  5
420
  8
LAYER1
 10
18039.28607666917
 20
10000.00011395502
 30
0.0
 11
18039.28607666917
 21
7000.0001139550286
 31
0.0
  0
LINE
  5
421
  8
LAYER1
 10
20564.28607666917
 20
10500.000113955
 30
0.0
 11
20564.28607666917
 21
5350.0001139550368
 31
0.0
  0
LINE
  5
422
  8
LAYER6
 10
21863.362852024609
 20
5002.8308087376208
 30
0.0
 11
19263.093699036712
 21
5003.394884680325
 31
0.0
  0
POLYLINE
  5
423
  8
LAYER6
 66
     1
 10
0.0
 20
0.0
 30
0.0
 70
     1
  0
VERTEX
  5
BCD
  8
LAYER6
 10
17574.942714184639
 20
4086.7359026611148
 30
0.0
  0
VERTEX
  5
BCE
  8
LAYER6
 10
19267.62445623826
 20
4086.7359026611148
 30
0.0
  0
VERTEX
  5
BCF
  8
LAYER6
 10
19267.62445623826
 20
5387.0315994260163
 30
0.0
  0
VERTEX
  5
BD0
  8
LAYER6
 10
17574.942714184639
 20
5387.0315994260163
 30
0.0
  0
SEQEND
  5
BD1
  8
LAYER6
  0
POLYLINE
  5
424
  8
LAYER6
 66
     1
 10
0.0
 20
0.0
 30
0.0
 70
     1
  0
VERTEX
  5
BD2
  8
LAYER6
 10
17628.395839990611
 20
4157.9849971168869
 30
0.0
  0
VERTEX
  5
BD3
  8
LAYER6
 10
19214.171330432269
 20
4157.9849971168869
 30
0.0
  0
VERTEX
  5
BD4
  8
LAYER6
 10
19214.171330432269
 20
5333.5947785841854
 30
0.0
  0
VERTEX
  5
BD5
  8
LAYER6
 10
17628.395839990611
 20
5333.5947785841854
 30
0.0
  0
SEQEND
  5
BD6
  8
LAYER6
  0
POINT
  5
425
  8
LAYER6
 10
18039.28607666917
 20
7000.0001139550286
 30
0.0
  0
LINE
  5
426
  8
LAYER2
 10
19264.28607666917
 20
10500.000113955
 30
0.0
 11
21864.28607666917
 21
10500.000113955
 31
0.0
  0
LINE
  5
427
  8
LAYER2
 10
18339.28607666917
 20
10000.60386272808
 30
0.0
 11
17739.28607666917
 21
10000.60386272808
 31
0.0
  0
DIMENSION
  5
428
  8
LAYER3
  2
*D1
 10
28110.838400276709
 20
3336.4368709701162
 30
0.0
 11
27859.071023961871
 21
6099.1976374436417
 31
0.0
 12
-60576.21110039542
 22
-37328.010178017248
 32
0.0
 70
     1
  3
ISO-25
 13
24776.126140618049
 23
8500.0001139550222
 33
0.0
 14
25479.28607666917
 24
3000.000113955015
 34
0.0
1001
ACAD
1000
DSTYLE
1002
{
1070
    41
1040
200.0
1070
   140
1040
200.0
1070
   274
1070
     2
1070
   279
1070
     0
1070
   284
1070
     0
1070
   285
1070
     0
1070
   286
1070
     0
1002
}
  0
LINE
  5
429
  8
LAYER4
 10
24364.28607666917
 20
3000.000113955015
 30
0.0
 11
30793.80018397946
 21
3000.000113955015
 31
0.0
  0
LINE
  5
42A
  8
LAYER6
 10
23964.28607666917
 20
5850.0001139550368
 30
0.0
 11
23964.28607666917
 21
3800.000113955015
 31
0.0
1001
ACAD
1000
ASC_BOUNDS
1002
{
1070
    19
1005
0
1002
}
  0
LINE
  5
42B
  8
LAYER6
 10
23964.28607666917
 20
3800.000113955015
 30
0.0
 11
24464.28607666917
 21
2800.0001139550218
 31
0.0
  0
LINE
  5
42C
  8
LAYER3
 10
20564.28607666917
 20
14000.00011395502
 30
0.0
 11
25179.28607666917
 21
13985.20403595859
 31
0.0
  0
ENDBLK
  5
42E
  8
0
  0
BLOCK
  8
0
  2
*D6
 70
     1
 10
0.0
 20
0.0
 30
0.0
  3
*D6
  1

  0
LINE
  5
6FE
  8
LAYER3
 62
     0
 10
41519.286432206558
 20
-45324.188550336861
 30
0.0
 11
39038.623752273197
 21
-46674.401390021019
 31
0.0
  0
LINE
  5
6FF
  8
LAYER3
 62
     0
 10
43369.89018097963
 20
-48724.188550336847
 30
0.0
 11
40889.227501046269
 21
-50074.401390020997
 31
0.0
  0
LINE
  5
700
  8
LAYER3
 62
     0
 10
39326.561954727702
 20
-47200.797774950923
 30
0.0
 11
40603.485106795459
 21
-49546.809837181288
 31
0.0
  0
LINE
  5
701
  8
LAYER3
 62
     0
 10
40890.325405148113
 20
-50073.803806066091
 30
0.0
 11
43217.516520185651
 21
-54349.408346678028
 31
0.0
  0
SOLID
  5
702
  8
LAYER3
 62
     0
 10
39414.394282875161
 20
-47152.991058558808
 30
0.0
 11
39238.729626580222
 21
-47248.604491343031
 31
0.0
 12
39039.721656375048
 22
-46673.803806066113
 32
0.0
 13
39039.721656375048
 23
-46673.803806066113
 33
0.0
  0
SOLID
  5
703
  8
LAYER3
 62
     0
 10
40691.317434942932
 20
-49499.003120789181
 30
0.0
 11
40515.652778647993
 21
-49594.616553573404
 31
0.0
 12
40890.325405148113
 22
-50073.803806066091
 32
0.0
 13
40890.325405148113
 23
-50073.803806066091
 33
0.0
  0
TEXT
  5
704
  8
LAYER4
 62
     1
 10
41295.123218392422
 20
-50537.305646501562
 30
0.0
 40
800.0
  1
3871,01
 50
298.5592413576444
  0
POINT
  5
705
  8
DEFPOINTS
 62
     0
 10
41519.835384257472
 20
-45323.889758359408
 30
0.0
  0
POINT
  5
706
  8
DEFPOINTS
 62
     0
 10
43370.439133030537
 20
-48723.889758359393
 30
0.0
  0
POINT
  5
707
  8
DEFPOINTS
 62
     0
 10
40890.325405148113
 20
-50073.803806066091
 30
0.0
  0
ENDBLK
  5
709
  8
0
  0
BLOCK
  8
0
  2
*D7
 70
     1
 10
0.0
 20
0.0
 30
0.0
  3
*D7
  1

  0
LINE
  5
70C
  8
LAYER3
 62
     0
 10
41518.699148739448
 20
-45324.402380010361
 30
0.0
 11
37519.783220848207
 21
-46780.406056457563
 31
0.0
  0
LINE
  5
70D
  8
LAYER3
 62
     0
 10
43369.851849563427
 20
-50408.595600144967
 30
0.0
 11
39370.935921672193
 21
-51864.599276592169
 31
0.0
  0
LINE
  5
70E
  8
LAYER3
 62
     0
 10
37726.234274342758
 20
-47343.770525527972
 30
0.0
 11
39166.834002046038
 21
-51300.379488827741
 31
0.0
  0
SOLID
  5
70F
  8
LAYER3
 62
     0
 10
37820.199629078998
 20
-47309.557777767906
 30
0.0
 11
37632.268919606533
 21
-47377.983273288017
 31
0.0
 12
37520.957787782419
 22
-46779.97839711055
 32
0.0
 13
37520.957787782419
 23
-46779.97839711055
 33
0.0
  0
SOLID
  5
710
  8
LAYER3
 62
     0
 10
39260.799356782278
 20
-51266.166741067682
 30
0.0
 11
39072.868647309799
 21
-51334.5922365878
 31
0.0
 12
39372.110488606391
 22
-51864.171617245163
 32
0.0
 13
39372.110488606391
 23
-51864.171617245163
 33
0.0
  0
TEXT
  5
711
  8
LAYER4
 62
     1
 10
37842.53660909523
 20
-47271.649946117926
 30
0.0
 40
800.0
  1
5410,71
 50
290.00654461753498
  0
POINT
  5
712
  8
DEFPOINTS
 62
     0
 10
41519.286432206558
 20
-45324.188550336861
 30
0.0
  0
POINT
  5
713
  8
DEFPOINTS
 62
     0
 10
43370.439133030537
 20
-50408.38177047146
 30
0.0
  0
POINT
  5
714
  8
DEFPOINTS
 62
     0
 10
39372.110488606391
 20
-51864.171617245163
 30
0.0
  0
ENDBLK
  5
716
  8
0
  0
BLOCK
  8
0
  2
*D8
 70
     1
 10
0.0
 20
0.0
 30
0.0
  3
*D8
  1

  0
LINE
  5
719
  8
LAYER3
 62
     0
 10
41518.083659557888
 20
-45324.510998919213
 30
0.0
 11
36317.998897609119
 21
-46242.19980590968
 31
0.0
  0
LINE
  5
71A
  8
LAYER3
 62
     0
 10
42973.248677171738
 20
-53570.205374369238
 30
0.0
 11
37773.163915222984
 21
-54487.894181359712
 31
0.0
  0
LINE
  5
71B
  8
LAYER3
 62
     0
 10
36423.504028466123
 20
-46832.852182407783
 30
0.0
 11
37670.120741092287
 21
-53896.807329226227
 31
0.0
  0
SOLID
  5
71C
  8
LAYER3
 62
     0
 10
36521.982297518749
 20
-46815.473156992128
 30
0.0
 11
36325.025759413482
 21
-46850.23120782341
 31
0.0
 12
36319.229875972269
 22
-46241.982568091982
 32
0.0
 13
36319.229875972269
 23
-46241.982568091982
 33
0.0
  0
SOLID
  5
71D
  8
LAYER3
 62
     0
 10
37768.599010144921
 20
-53879.428303810579
 30
0.0
 11
37571.642472039661
 21
-53914.186354641861
 31
0.0
 12
37774.394893586141
 22
-54487.676943542006
 32
0.0
 13
37774.394893586141
 23
-54487.676943542006
 33
0.0
  0
TEXT
  5
71E
  8
LAYER4
 62
     1
 10
36796.393673553532
 20
-48175.02718386273
 30
0.0
 40
800.0
  1
8373,11
 50
280.00826606691538
  0
POINT
  5
71F
  8
DEFPOINTS
 62
     0
 10
41518.699148739463
 20
-45324.402380010361
 30
0.0
  0
POINT
  5
720
  8
DEFPOINTS
 62
     0
 10
42973.864166353313
 20
-53570.096755460399
 30
0.0
  0
POINT
  5
721
  8
DEFPOINTS
 62
     0
 10
37774.394893586141
 20
-54487.676943542006
 30
0.0
  0
ENDBLK
  5
723
  8
0
  0
BLOCK
  8
0
  2
*D9
 70
     1
 10
0.0
 20
0.0
 30
0.0
  3
*D9
  1

  0
LINE
  5
72A
  8
LAYER3
 62
     0
 10
84813.478451457864
 20
45828.089551391371
 30
0.0
 11
86794.666457592888
 21
46081.379011700301
 31
0.0
  0
LINE
  5
72B
  8
LAYER3
 62
     0
 10
85516.638387508996
 20
40328.089551391349
 30
0.0
 11
87497.826393644005
 21
40581.379011700294
 31
0.0
  0
LINE
  5
72C
  8
LAYER3
 62
     0
 10
86831.471070784653
 20
45783.642579687337
 30
0.0
 11
87458.541964509146
 21
40878.798406036884
 31
0.0
  0
SOLID
  5
72D
  8
LAYER3
 62
     0
 10
86881.067389647113
 20
45789.983333214572
 30
0.0
 11
86781.874751922194
 21
45777.301826160117
 31
0.0
 12
86793.426549621334
 22
46081.220492862121
 32
0.0
 13
86793.426549621334
 23
46081.220492862121
 33
0.0
  0
SOLID
  5
72E
  8
LAYER3
 62
     0
 10
87508.138283371605
 20
40885.139159564111
 30
0.0
 11
87408.945645646687
 21
40872.457652509671
 31
0.0
 12
87496.586485672466
 22
40581.220492862107
 32
0.0
 13
87496.586485672466
 23
40581.220492862107
 33
0.0
  0
TEXT
  5
72F
  8
LAYER4
 62
     0
 10
87075.878182833272
 20
43876.859259768287
 30
0.0
 40
300.0
  1
5545
 50
277.285585918572
  0
POINT
  5
730
  8
DEFPOINTS
 62
     0
 10
84812.858497472116
 20
45828.01029197227
 30
0.0
  0
POINT
  5
731
  8
DEFPOINTS
 62
     0
 10
85516.018433523219
 20
40328.010291972263
 30
0.0
  0
POINT
  5
732
  8
DEFPOINTS
 62
     0
 10
87496.586485672466
 20
40581.220492862107
 30
0.0
  0
ENDBLK
  5
734
  8
0
  0
BLOCK
  8
0
  2
*D10
 70
     1
 10
0.0
 20
0.0
 30
0.0
  3
*D10
  1

  0
LINE
  5
736
  8
LAYER3
 62
     0
 10
77775.90990341219
 20
47329.229545590977
 30
0.0
 11
76740.931218280806
 21
53198.885346268478
 31
0.0
  0
LINE
  5
737
  8
LAYER3
 62
     0
 10
70655.758289389647
 20
46073.754709303888
 30
0.0
 11
69620.779604258263
 21
51943.41050998139
 31
0.0
  0
LINE
  5
738
  8
LAYER3
 62
     0
 10
76445.705952599223
 20
53145.559883277143
 30
0.0
 11
69916.438990384006
 21
51994.2739535902
 31
0.0
  0
SOLID
  5
739
  8
LAYER3
 62
     0
 10
76437.02354371587
 20
53194.80027092775
 30
0.0
 11
76454.388361482561
 21
53096.319495626522
 31
0.0
 12
76741.148278502893
 22
53197.654336577223
 32
0.0
 13
76741.148278502893
 23
53197.654336577223
 33
0.0
  0
SOLID
  5
73A
  8
LAYER3
 62
     0
 10
69907.756581500653
 20
52043.5143412408
 30
0.0
 11
69925.121399267344
 21
51945.033565939579
 31
0.0
 12
69620.99666448035
 22
51942.179500290113
 32
0.0
 13
69620.99666448035
 23
51942.179500290113
 33
0.0
  0
TEXT
  5
73B
  8
LAYER4
 62
     0
 10
72663.939871049151
 20
52479.367130004168
 30
0.0
 40
300.0
  1
7230
 50
9.9999999999999893
  0
POINT
  5
73C
  8
DEFPOINTS
 62
     0
 10
77776.018433523233
 20
47328.614040745349
 30
0.0
  0
POINT
  5
73D
  8
DEFPOINTS
 62
     0
 10
70655.86681950069
 20
46073.139204458254
 30
0.0
  0
POINT
  5
73E
  8
DEFPOINTS
 62
     0
 10
69620.99666448035
 20
51942.179500290113
 30
0.0
  0
ENDBLK
  5
740
  8
0
  0
BLOCK
  8
0
  2
*D11
 70
     1
 10
0.0
 20
0.0
 30
0.0
  3
*D11
  1

  0
LINE
  5
742
  8
LAYER3
 62
     0
 10
77775.804670933663
 20
47329.201348633324
 30
0.0
 11
75916.322733599533
 21
52438.085983342557
 31
0.0
  0
LINE
  5
743
  8
LAYER3
 62
     0
 10
73915.199968574991
 20
45924.056150706638
 30
0.0
 11
72055.718031240875
 21
51032.940785415871
 31
0.0
  0
LINE
  5
744
  8
LAYER3
 62
     0
 10
75634.842472542921
 20
52334.305324568872
 30
0.0
 11
72338.053342655796
 21
51134.37221263758
 31
0.0
  0
SOLID
  5
745
  8
LAYER3
 62
     0
 10
75617.741465376646
 20
52381.289955608168
 30
0.0
 11
75651.943479709211
 21
52287.320693529582
 31
0.0
 12
75916.750258778688
 22
52436.911367566572
 32
0.0
 13
75916.750258778688
 23
52436.911367566572
 33
0.0
  0
SOLID
  5
746
  8
LAYER3
 62
     0
 10
72320.952335489521
 20
51181.356843676876
 30
0.0
 11
72355.154349822085
 21
51087.387581598283
 31
0.0
 12
72056.14555642003
 22
51031.766169639879
 32
0.0
 13
72056.14555642003
 23
51031.766169639879
 33
0.0
  0
TEXT
  5
747
  8
LAYER4
 62
     0
 10
73539.88015013648
 20
51572.466508411533
 30
0.0
 40
300.0
  1
4108
 50
20.000000000000028
  0
POINT
  5
748
  8
DEFPOINTS
 62
     0
 10
77776.018433523233
 20
47328.614040745328
 30
0.0
  0
POINT
  5
749
  8
DEFPOINTS
 62
     0
 10
73915.413731164575
 20
45923.468842818649
 30
0.0
  0
POINT
  5
74A
  8
DEFPOINTS
 62
     0
 10
72056.14555642003
 20
51031.766169639879
 30
0.0
  0
ENDBLK
  5
74C
  8
0
  0
BLOCK
  8
0
  2
*D12
 70
     1
 10
0.0
 20
0.0
 30
0.0
  3
*D12
  1

  0
LINE
  5
74E
  8
LAYER3
 62
     0
 10
77775.59785083514
 20
47329.136201621877
 30
0.0
 11
76107.895694128383
 21
50216.234333578992
 31
0.0
  0
LINE
  5
74F
  8
LAYER3
 62
     0
 10
74883.315850025087
 20
45658.439637080308
 30
0.0
 11
73215.61369331833
 21
48545.537769037437
 31
0.0
  0
LINE
  5
750
  8
LAYER3
 62
     0
 10
75848.745857513612
 20
50065.095573882667
 30
0.0
 11
73476.01399962946
 21
48694.511736471548
 31
0.0
  0
SOLID
  5
751
  8
LAYER3
 62
     0
 10
75823.736463586072
 20
50108.391419126507
 30
0.0
 11
75873.755251441151
 21
50021.799728638849
 31
0.0
 12
76108.520928976563
 22
50215.151937447888
 32
0.0
 13
76108.520928976563
 23
50215.151937447888
 33
0.0
  0
SOLID
  5
752
  8
LAYER3
 62
     0
 10
73451.004605701921
 20
48737.80758171538
 30
0.0
 11
73501.023393557
 21
48651.21589122773
 31
0.0
 12
73216.238928166509
 22
48544.455372906341
 32
0.0
 13
73216.238928166509
 23
48544.455372906341
 33
0.0
  0
TEXT
  5
753
  8
LAYER4
 62
     0
 10
74207.460936087271
 20
49117.746217003529
 30
0.0
 40
300.0
  1
3340
 50
30.012430723496809
  0
POINT
  5
754
  8
DEFPOINTS
 62
     0
 10
77775.910468259244
 20
47328.595003556322
 30
0.0
  0
POINT
  5
755
  8
DEFPOINTS
 62
     0
 10
74883.628467449191
 20
45657.898439014767
 30
0.0
  0
POINT
  5
756
  8
DEFPOINTS
 62
     0
 10
73216.238928166509
 20
48544.455372906341
 30
0.0
  0
ENDBLK
  5
758
  8
0
  0
BLOCK
  8
0
  2
*D13
 70
     1
 10
0.0
 20
0.0
 30
0.0
  3
*D13
  1

  0
LINE
  5
75A
  8
LAYER3
 62
     0
 10
77775.910496463926
 20
47329.220003555689
 30
0.0
 11
77776.230098381522
 21
54411.421427054542
 31
0.0
  0
LINE
  5
75B
  8
LAYER3
 62
     0
 10
63504.405379777498
 20
47329.864040646622
 30
0.0
 11
63504.724981695093
 21
54412.065464145482
 31
0.0
  0
LINE
  5
75C
  8
LAYER3
 62
     0
 10
77476.230042277632
 20
54410.18496530041
 30
0.0
 11
63804.724924980277
 21
54410.80192590216
 31
0.0
  0
SOLID
  5
75D
  8
LAYER3
 62
     0
 10
77476.232298651725
 20
54460.184965249493
 30
0.0
 11
77476.227785903538
 21
54360.184965351313
 31
0.0
 12
77776.230041972158
 22
54410.171427055822
 32
0.0
 13
77776.230041972158
 23
54410.171427055822
 33
0.0
  0
SOLID
  5
75E
  8
LAYER3
 62
     0
 10
63804.727181354378
 20
54460.801925851243
 30
0.0
 11
63804.722668606177
 21
54360.80192595307
 31
0.0
 12
63504.724925285736
 22
54410.815464146748
 32
0.0
 13
63504.724925285736
 23
54410.815464146748
 33
0.0
  0
TEXT
  5
75F
  8
LAYER4
 62
     0
 10
69990.47751249549
 20
54411.147778463943
 30
0.0
 40
300.0
  1
14272
 50
359.9974143857404
  0
POINT
  5
760
  8
DEFPOINTS
 62
     0
 10
77775.910468259244
 20
47328.595003556322
 30
0.0
  0
POINT
  5
761
  8
DEFPOINTS
 62
     0
 10
63504.405351572823
 20
47329.239040647262
 30
0.0
  0
POINT
  5
762
  8
DEFPOINTS
 62
     0
 10
63504.724925285736
 20
54410.815464146748
 30
0.0
  0
ENDBLK
  5
764
  8
0
  0
BLOCK
  8
0
  2
*D15
 70
     1
 10
0.0
 20
0.0
 30
0.0
  3
*D15
  1

  0
LINE
  5
936
  8
LAYER3
 62
     0
 10
115091.29293767
 20
-54354.79519632757
 30
0.0
 11
108009.0915141712
 21
-54354.47559440996
 31
0.0
  0
LINE
  5
937
  8
LAYER3
 62
     0
 10
115090.64890057909
 20
-68626.300313013984
 30
0.0
 11
108008.4474770802
 21
-68625.980711096388
 31
0.0
  0
LINE
  5
938
  8
LAYER3
 62
     0
 10
108010.3144376807
 20
-54954.475650208362
 30
0.0
 11
108009.7245535682
 21
-68025.9807681167
 31
0.0
  0
SOLID
  5
939
  8
LAYER3
 62
     0
 10
107910.31443778249
 20
-54954.471137460168
 30
0.0
 11
108110.3144375789
 21
-54954.480162956563
 31
0.0
 12
108010.34151416989
 22
-54354.475650819317
 32
0.0
 13
108010.34151416989
 23
-54354.475650819317
 33
0.0
  0
SOLID
  5
93A
  8
LAYER3
 62
     0
 10
107909.72455367001
 20
-68025.9762553685
 30
0.0
 11
108109.72455346629
 21
-68025.985280864901
 31
0.0
 12
108009.697477079
 22
-68625.980767505753
 32
0.0
 13
108009.697477079
 23
-68625.980767505753
 33
0.0
  0
TEXT
  5
93B
  8
LAYER4
 62
     1
 10
108009.3162746563
 20
-63223.561512526241
 30
0.0
 40
800.0
  1
14272
 50
89.997414385740313
  0
POINT
  5
93C
  8
DEFPOINTS
 62
     0
 10
115091.91793766939
 20
-54354.795224532238
 30
0.0
  0
POINT
  5
93D
  8
DEFPOINTS
 62
     0
 10
115091.2739005784
 20
-68626.300341218681
 30
0.0
  0
POINT
  5
93E
  8
DEFPOINTS
 62
     0
 10
108009.697477079
 20
-68625.980767505753
 30
0.0
  0
ENDBLK
  5
846
  8
0
  0
BLOCK
  8
0
  2
*D16
 70
     1
 10
0.0
 20
0.0
 30
0.0
  3
*D16
  1

  0
LINE
  5
93F
  8
LAYER3
 62
     0
 10
115091.3767396038
 20
-54355.10784195632
 30
0.0
 11
112204.2786076467
 21
-56022.809998663113
 31
0.0
  0
LINE
  5
940
  8
LAYER3
 62
     0
 10
116762.07330414539
 20
-57247.389842766388
 30
0.0
 11
113874.97517218821
 21
-58915.091999473167
 31
0.0
  0
LINE
  5
941
  8
LAYER3
 62
     0
 10
112505.4737309082
 20
-56541.734906740829
 30
0.0
 11
113575.9448411889
 21
-58394.916621699071
 31
0.0
  0
SOLID
  5
942
  8
LAYER3
 62
     0
 10
112592.06542139591
 20
-56491.716118885772
 30
0.0
 11
112418.88204042061
 21
-56591.753694595907
 31
0.0
 12
112205.3610037778
 22
-56022.184763814919
 32
0.0
 13
112205.3610037778
 23
-56022.184763814919
 33
0.0
  0
SOLID
  5
943
  8
LAYER3
 62
     0
 10
113662.53653167649
 20
-58344.897833843999
 30
0.0
 11
113489.35315070119
 21
-58444.935409554142
 31
0.0
 12
113876.0575683193
 22
-58914.46676462498
 32
0.0
 13
113876.0575683193
 23
-58914.46676462498
 33
0.0
  0
TEXT
  5
944
  8
LAYER4
 62
     1
 10
112340.98745414311
 20
-56255.729479968737
 30
0.0
 40
800.0
  1
3340
 50
300.01243072349689
  0
POINT
  5
945
  8
DEFPOINTS
 62
     0
 10
115091.91793766931
 20
-54354.795224532223
 30
0.0
  0
POINT
  5
946
  8
DEFPOINTS
 62
     0
 10
116762.6145022109
 20
-57247.077225342291
 30
0.0
  0
POINT
  5
947
  8
DEFPOINTS
 62
     0
 10
113876.0575683193
 20
-58914.46676462498
 30
0.0
  0
ENDBLK
  5
853
  8
0
  0
BLOCK
  8
0
  2
*D17
 70
     1
 10
0.0
 20
0.0
 30
0.0
  3
*D17
  1

  0
LINE
  5
948
  8
LAYER3
 62
     0
 10
115091.3115925923
 20
-54354.901021857819
 30
0.0
 11
109982.4269578831
 21
-56214.382959191957
 31
0.0
  0
LINE
  5
949
  8
LAYER3
 62
     0
 10
116496.45679051901
 20
-58215.505724216477
 30
0.0
 11
111387.5721558098
 21
-60074.987661550622
 31
0.0
  0
LINE
  5
94A
  8
LAYER3
 62
     0
 10
110188.81365965449
 20
-56777.77100648432
 30
0.0
 11
111183.5346855903
 21
-59510.74456389992
 31
0.0
  0
SOLID
  5
94B
  8
LAYER3
 62
     0
 10
110282.7829217331
 20
-56743.568992151762
 30
0.0
 11
110094.8443975759
 21
-56811.973020816898
 31
0.0
 12
109983.60157365911
 22
-56213.955434012802
 32
0.0
 13
109983.60157365911
 23
-56213.955434012802
 33
0.0
  0
SOLID
  5
94C
  8
LAYER3
 62
     0
 10
111277.5039476689
 20
-59476.542549567348
 30
0.0
 11
111089.5654235117
 21
-59544.946578232491
 31
0.0
 12
111388.74677158571
 22
-60074.56013637146
 32
0.0
 13
111388.74677158571
 23
-60074.56013637146
 33
0.0
  0
TEXT
  5
94D
  8
LAYER4
 62
     1
 10
110253.53596563121
 20
-56953.766702940396
 30
0.0
 40
800.0
  1
4108
 50
290.0
  0
POINT
  5
94E
  8
DEFPOINTS
 62
     0
 10
115091.8989004803
 20
-54354.687259268241
 30
0.0
  0
POINT
  5
94F
  8
DEFPOINTS
 62
     0
 10
116497.044098407
 20
-58215.291961626906
 30
0.0
  0
POINT
  5
950
  8
DEFPOINTS
 62
     0
 10
111388.74677158571
 20
-60074.56013637146
 30
0.0
  0
ENDBLK
  5
860
  8
0
  0
BLOCK
  8
0
  2
*D18
 70
     1
 10
0.0
 20
0.0
 30
0.0
  3
*D18
  1

  0
LINE
  5
951
  8
LAYER3
 62
     0
 10
115091.2833956347
 20
-54354.795789379277
 30
0.0
 11
109221.6275949571
 21
-55389.77447451069
 31
0.0
  0
LINE
  5
952
  8
LAYER3
 62
     0
 10
116346.75823192181
 20
-61474.947403401842
 30
0.0
 11
110477.1024312443
 21
-62509.926088533248
 31
0.0
  0
LINE
  5
953
  8
LAYER3
 62
     0
 10
109327.0475112486
 20
-55980.442066095929
 30
0.0
 11
110374.1445343354
 21
-61918.824376503842
 31
0.0
  0
SOLID
  5
954
  8
LAYER3
 62
     0
 10
109425.5282865498
 20
-55963.077248329231
 30
0.0
 11
109228.5667359473
 21
-55997.80688386262
 31
0.0
 12
109222.8586046484
 22
-55389.557414288611
 32
0.0
 13
109222.8586046484
 23
-55389.557414288611
 33
0.0
  0
SOLID
  5
955
  8
LAYER3
 62
     0
 10
110472.6253096366
 20
-61901.459558737137
 30
0.0
 11
110275.6637590341
 21
-61936.189194270519
 31
0.0
 12
110478.3334409355
 22
-62509.709028311161
 32
0.0
 13
110478.3334409355
 23
-62509.709028311161
 33
0.0
  0
TEXT
  5
956
  8
LAYER4
 62
     1
 10
109608.1040789039
 20
-57570.793836971752
 30
0.0
 40
800.0
  1
7230
 50
280.0
  0
POINT
  5
957
  8
DEFPOINTS
 62
     0
 10
115091.8989004803
 20
-54354.687259268241
 30
0.0
  0
POINT
  5
958
  8
DEFPOINTS
 62
     0
 10
116347.3737367674
 20
-61474.838873290792
 30
0.0
  0
POINT
  5
959
  8
DEFPOINTS
 62
     0
 10
110478.3334409355
 20
-62509.709028311161
 30
0.0
  0
ENDBLK
  5
86C
  8
0
  0
BLOCK
  8
0
  2
*D19
 70
     1
 10
0.0
 20
0.0
 30
0.0
  3
*D19
  1

  0
LINE
  5
95A
  8
LAYER3
 62
     0
 10
116592.42338983429
 20
-47317.227241333589
 30
0.0
 11
116339.1339295254
 21
-45336.03923519863
 31
0.0
  0
LINE
  5
95B
  8
LAYER3
 62
     0
 10
122092.42338983429
 20
-46614.067305282471
 30
0.0
 11
121839.1339295254
 21
-44632.87929914752
 31
0.0
  0
LINE
  5
95C
  8
LAYER3
 62
     0
 10
116934.4482747131
 20
-45261.190100843582
 30
0.0
 11
121244.136622014
 21
-44710.208249445699
 31
0.0
  0
SOLID
  5
95D
  8
LAYER3
 62
     0
 10
116921.7667676587
 20
-45161.997463118663
 30
0.0
 11
116947.12978176759
 21
-45360.382738568507
 31
0.0
 12
116339.2924483636
 22
-45337.279143170214
 32
0.0
 13
116339.2924483636
 23
-45337.279143170214
 33
0.0
  0
SOLID
  5
95E
  8
LAYER3
 62
     0
 10
121231.45511495959
 20
-44611.015611720773
 30
0.0
 11
121256.8181290684
 21
-44809.400887170632
 31
0.0
 12
121839.2924483636
 22
-44634.119207119089
 32
0.0
 13
121839.2924483636
 23
-44634.119207119089
 33
0.0
  0
TEXT
  5
95F
  8
LAYER4
 62
     1
 10
117634.3878356456
 20
-45171.074657957259
 30
0.0
 40
800.0
  1
5545
 50
7.2855859185720426
  0
POINT
  5
960
  8
DEFPOINTS
 62
     0
 10
116592.50264925339
 20
-47317.84719531938
 30
0.0
  0
POINT
  5
961
  8
DEFPOINTS
 62
     0
 10
122092.50264925339
 20
-46614.687259268248
 30
0.0
  0
POINT
  5
962
  8
DEFPOINTS
 62
     0
 10
121839.2924483636
 20
-44634.119207119089
 30
0.0
  0
ENDBLK
  5
878
  8
0
  0
ENDSEC
  0
SECTION
  2
ENTITIES
  0
INSERT
  5
313
  8
LAYER1
 66
     1
  2
DIN_A4_TITLE_BLOCK
 10
146971.87731580841
 20
-77358.651736384796
 30
0.0
 41
200.0
 42
200.0
 43
200.0
 50
90.0
  0
ATTRIB
  5
314
  8
RAHMEN05
 10
140885.95389557481
 20
-49190.380999289773
 30
0.0
 40
1000.0
  1
dl2mmg-Vorn
 50
90.0
  7
ISO_PROPORTIONAL
 72
     4
 11
140528.9773137318
 21
-45240.380999289773
 31
0.0
  2
BENENNUNG
 70
     0
  0
ATTRIB
  5
315
  8
RAHMEN05
 10
144263.90667719211
 20
-49369.845488529289
 30
0.0
 40
1000.0
  1
dl2mmg-2
 50
90.0
  7
ISO_PROPORTIONAL
 72
     4
 11
143906.93009534909
 21
-46507.93780432405
 31
0.0
  2
ZEICHNUNGSNUMMER
 70
     0
  0
ATTRIB
  5
316
  8
RAHMEN025
 10
140680.67080235729
 20
-57415.024915956317
 30
0.0
 40
500.0
  1
XXX
 50
90.0
  7
ISO_PROPORTIONAL
  2
NAME
 70
     0
  0
ATTRIB
  5
317
  8
RAHMEN025
 10
140680.67080235729
 20
-60667.647466317241
 30
0.0
 40
500.0
  1
00.00.00
 50
90.0
  7
ISO_PROPORTIONAL
  2
GEPRÜFT
 70
     0
  0
ATTRIB
  5
318
  8
RAHMEN025
 10
139830.67080235729
 20
-60667.647466317241
 30
0.0
 40
500.0
  1
22.09.04
 50
90.0
  7
ISO_PROPORTIONAL
  2
BEARBEIT.
 70
     0
  0
ATTRIB
  5
319
  8
RAHMEN025
 10
139830.67080235729
 20
-57415.024915956317
 30
0.0
 40
500.0
  1
dj9yj
 50
90.0
  7
ISO_PROPORTIONAL
  2
NAME
 70
     0
  0
ATTRIB
  5
31A
  8
RAHMEN025
 10
135809.37731580841
 20
-50680.327099039059
 30
0.0
 40
500.0
  1
1:200
 50
90.0
  7
ISO_PROPORTIONAL
  2
MAßSTAB
 70
     0
  0
SEQEND
  5
31B
  8
LAYER1
  0
TEXT
  5
435
  8
LAYER4
 10
132811.92031388081
 20
-67532.163814340078
 30
0.0
 40
500.0
  1
Sicherheitsbereich
 50
90.0
  0
TEXT
  5
436
  8
LAYER4
 10
131814.13811943919
 20
-67432.355074303487
 30
0.0
 40
500.0
  1
Kontrollierbarer Bereich
 50
90.0
  0
POLYLINE
  5
7D2
  8
LAYER1
 66
     1
 10
0.0
 20
0.0
 30
0.0
 70
     1
  0
VERTEX
  5
C81
  8
LAYER1
 10
120934.51776609151
 20
-54465.577495946789
 30
0.0
  0
VERTEX
  5
C82
  8
LAYER1
 10
120934.51776609151
 20
-52879.802005505138
 30
0.0
  0
VERTEX
  5
C83
  8
LAYER1
 10
119758.90798462419
 20
-52879.802005505138
 30
0.0
  0
VERTEX
  5
C84
  8
LAYER1
 10
119758.90798462419
 20
-54465.577495946789
 30
0.0
  0
SEQEND
  5
C85
  8
LAYER1
  0
POLYLINE
  5
7D3
  8
LAYER1
 66
     1
 10
0.0
 20
0.0
 30
0.0
 70
     1
  0
VERTEX
  5
C86
  8
LAYER1
 10
121005.7668605473
 20
-54519.03062175279
 30
0.0
  0
VERTEX
  5
C87
  8
LAYER1
 10
121005.7668605473
 20
-52826.348879699173
 30
0.0
  0
VERTEX
  5
C88
  8
LAYER1
 10
119705.47116378239
 20
-52826.348879699173
 30
0.0
  0
VERTEX
  5
C89
  8
LAYER1
 10
119705.47116378239
 20
-54519.03062175279
 30
0.0
  0
SEQEND
  5
C8A
  8
LAYER1
  0
POLYLINE
  5
7D4
  8
LAYER1
 66
     1
 10
0.0
 20
0.0
 30
0.0
 70
     1
  0
VERTEX
  5
C8B
  8
LAYER1
 10
121005.7668605473
 20
-56991.316073088601
 30
0.0
  0
VERTEX
  5
C8C
  8
LAYER1
 10
121005.7668605473
 20
-55298.634331034969
 30
0.0
  0
VERTEX
  5
C8D
  8
LAYER1
 10
119705.47116378239
 20
-55298.634331034969
 30
0.0
  0
VERTEX
  5
C8E
  8
LAYER1
 10
119705.47116378239
 20
-56991.316073088601
 30
0.0
  0
SEQEND
  5
C8F
  8
LAYER1
  0
POLYLINE
  5
7D5
  8
LAYER1
 66
     1
 10
0.0
 20
0.0
 30
0.0
 70
     1
  0
VERTEX
  5
C90
  8
LAYER1
 10
120934.51776609151
 20
-56937.862947282592
 30
0.0
  0
VERTEX
  5
C91
  8
LAYER1
 10
120934.51776609151
 20
-55352.087456840942
 30
0.0
  0
VERTEX
  5
C92
  8
LAYER1
 10
119758.90798462419
 20
-55352.087456840942
 30
0.0
  0
VERTEX
  5
C93
  8
LAYER1
 10
119758.90798462419
 20
-56937.862947282592
 30
0.0
  0
SEQEND
  5
C94
  8
LAYER1
  0
POLYLINE
  5
7D6
  8
LAYER1
 66
     1
 10
0.0
 20
0.0
 30
0.0
 70
     1
  0
VERTEX
  5
C95
  8
LAYER1
 10
124229.7880356166
 20
-54519.03062175279
 30
0.0
  0
VERTEX
  5
C96
  8
LAYER1
 10
124229.7880356166
 20
-52826.348879699173
 30
0.0
  0
VERTEX
  5
C97
  8
LAYER1
 10
122929.49233885171
 20
-52826.348879699173
 30
0.0
  0
VERTEX
  5
C98
  8
LAYER1
 10
122929.49233885171
 20
-54519.03062175279
 30
0.0
  0
SEQEND
  5
C99
  8
LAYER1
  0
POLYLINE
  5
7D7
  8
LAYER1
 66
     1
 10
0.0
 20
0.0
 30
0.0
 70
     1
  0
VERTEX
  5
C9A
  8
LAYER1
 10
124158.5389411608
 20
-54465.577495946789
 30
0.0
  0
VERTEX
  5
C9B
  8
LAYER1
 10
124158.5389411608
 20
-52879.802005505138
 30
0.0
  0
VERTEX
  5
C9C
  8
LAYER1
 10
122982.92915969351
 20
-52879.802005505138
 30
0.0
  0
VERTEX
  5
C9D
  8
LAYER1
 10
122982.92915969351
 20
-54465.577495946789
 30
0.0
  0
SEQEND
  5
C9E
  8
LAYER1
  0
POLYLINE
  5
7D8
  8
LAYER1
 66
     1
 10
0.0
 20
0.0
 30
0.0
 70
     1
  0
VERTEX
  5
C9F
  8
LAYER1
 10
124158.5389411608
 20
-56937.862947282592
 30
0.0
  0
VERTEX
  5
CA0
  8
LAYER1
 10
124158.5389411608
 20
-55352.087456840942
 30
0.0
  0
VERTEX
  5
CA1
  8
LAYER1
 10
122982.92915969351
 20
-55352.087456840942
 30
0.0
  0
VERTEX
  5
CA2
  8
LAYER1
 10
122982.92915969351
 20
-56937.862947282592
 30
0.0
  0
SEQEND
  5
CA3
  8
LAYER1
  0
POLYLINE
  5
7D9
  8
LAYER1
 66
     1
 10
0.0
 20
0.0
 30
0.0
 70
     1
  0
VERTEX
  5
CA4
  8
LAYER1
 10
124229.7880356166
 20
-56991.316073088601
 30
0.0
  0
VERTEX
  5
CA5
  8
LAYER1
 10
124229.7880356166
 20
-55298.634331034969
 30
0.0
  0
VERTEX
  5
CA6
  8
LAYER1
 10
122929.49233885171
 20
-55298.634331034969
 30
0.0
  0
VERTEX
  5
CA7
  8
LAYER1
 10
122929.49233885171
 20
-56991.316073088601
 30
0.0
  0
SEQEND
  5
CA8
  8
LAYER1
  0
POLYLINE
  5
7DA
  8
LAYER1
 66
     1
 10
0.0
 20
0.0
 30
0.0
 70
     1
  0
VERTEX
  5
CA9
  8
LAYER1
 10
124158.5389411608
 20
-62586.07492002083
 30
0.0
  0
VERTEX
  5
CAA
  8
LAYER1
 10
124158.5389411608
 20
-61000.299429579187
 30
0.0
  0
VERTEX
  5
CAB
  8
LAYER1
 10
122982.92915969351
 20
-61000.299429579187
 30
0.0
  0
VERTEX
  5
CAC
  8
LAYER1
 10
122982.92915969351
 20
-62586.07492002083
 30
0.0
  0
SEQEND
  5
CAD
  8
LAYER1
  0
POLYLINE
  5
7DB
  8
LAYER1
 66
     1
 10
0.0
 20
0.0
 30
0.0
 70
     1
  0
VERTEX
  5
CAE
  8
LAYER1
 10
124229.7880356166
 20
-62639.528045826832
 30
0.0
  0
VERTEX
  5
CAF
  8
LAYER1
 10
124229.7880356166
 20
-60946.846303773207
 30
0.0
  0
VERTEX
  5
CB0
  8
LAYER1
 10
122929.49233885171
 20
-60946.846303773207
 30
0.0
  0
VERTEX
  5
CB1
  8
LAYER1
 10
122929.49233885171
 20
-62639.528045826832
 30
0.0
  0
SEQEND
  5
CB2
  8
LAYER1
  0
POLYLINE
  5
7DC
  8
LAYER1
 66
     1
 10
0.0
 20
0.0
 30
0.0
 70
     1
  0
VERTEX
  5
CB3
  8
LAYER1
 10
124229.7880356166
 20
-60167.242594491028
 30
0.0
  0
VERTEX
  5
CB4
  8
LAYER1
 10
124229.7880356166
 20
-58474.560852437411
 30
0.0
  0
VERTEX
  5
CB5
  8
LAYER1
 10
122929.49233885171
 20
-58474.560852437411
 30
0.0
  0
VERTEX
  5
CB6
  8
LAYER1
 10
122929.49233885171
 20
-60167.242594491028
 30
0.0
  0
SEQEND
  5
CB7
  8
LAYER1
  0
POLYLINE
  5
7DD
  8
LAYER1
 66
     1
 10
0.0
 20
0.0
 30
0.0
 70
     1
  0
VERTEX
  5
CB8
  8
LAYER1
 10
124158.5389411608
 20
-60113.789468685027
 30
0.0
  0
VERTEX
  5
CB9
  8
LAYER1
 10
124158.5389411608
 20
-58528.013978243383
 30
0.0
  0
VERTEX
  5
CBA
  8
LAYER1
 10
122982.92915969351
 20
-58528.013978243383
 30
0.0
  0
VERTEX
  5
CBB
  8
LAYER1
 10
122982.92915969351
 20
-60113.789468685027
 30
0.0
  0
SEQEND
  5
CBC
  8
LAYER1
  0
POLYLINE
  5
7DE
  8
LAYER1
 66
     1
 10
0.0
 20
0.0
 30
0.0
 70
     1
  0
VERTEX
  5
CBD
  8
LAYER1
 10
120934.51776609151
 20
-60113.789468685027
 30
0.0
  0
VERTEX
  5
CBE
  8
LAYER1
 10
120934.51776609151
 20
-58528.013978243383
 30
0.0
  0
VERTEX
  5
CBF
  8
LAYER1
 10
119758.90798462419
 20
-58528.013978243383
 30
0.0
  0
VERTEX
  5
CC0
  8
LAYER1
 10
119758.90798462419
 20
-60113.789468685027
 30
0.0
  0
SEQEND
  5
CC1
  8
LAYER1
  0
POLYLINE
  5
7DF
  8
LAYER1
 66
     1
 10
0.0
 20
0.0
 30
0.0
 70
     1
  0
VERTEX
  5
CC2
  8
LAYER1
 10
121005.7668605473
 20
-60167.242594491028
 30
0.0
  0
VERTEX
  5
CC3
  8
LAYER1
 10
121005.7668605473
 20
-58474.560852437411
 30
0.0
  0
VERTEX
  5
CC4
  8
LAYER1
 10
119705.47116378239
 20
-58474.560852437411
 30
0.0
  0
VERTEX
  5
CC5
  8
LAYER1
 10
119705.47116378239
 20
-60167.242594491028
 30
0.0
  0
SEQEND
  5
CC6
  8
LAYER1
  0
POLYLINE
  5
7E0
  8
LAYER1
 66
     1
 10
0.0
 20
0.0
 30
0.0
 70
     1
  0
VERTEX
  5
CC7
  8
LAYER1
 10
121005.7668605473
 20
-62639.528045826832
 30
0.0
  0
VERTEX
  5
CC8
  8
LAYER1
 10
121005.7668605473
 20
-60946.846303773207
 30
0.0
  0
VERTEX
  5
CC9
  8
LAYER1
 10
119705.47116378239
 20
-60946.846303773207
 30
0.0
  0
VERTEX
  5
CCA
  8
LAYER1
 10
119705.47116378239
 20
-62639.528045826832
 30
0.0
  0
SEQEND
  5
CCB
  8
LAYER1
  0
POLYLINE
  5
7E1
  8
LAYER1
 66
     1
 10
0.0
 20
0.0
 30
0.0
 70
     1
  0
VERTEX
  5
CCC
  8
LAYER1
 10
120934.51776609151
 20
-62586.07492002083
 30
0.0
  0
VERTEX
  5
CCD
  8
LAYER1
 10
120934.51776609151
 20
-61000.299429579187
 30
0.0
  0
VERTEX
  5
CCE
  8
LAYER1
 10
119758.90798462419
 20
-61000.299429579187
 30
0.0
  0
VERTEX
  5
CCF
  8
LAYER1
 10
119758.90798462419
 20
-62586.07492002083
 30
0.0
  0
SEQEND
  5
CD0
  8
LAYER1
  0
POLYLINE
  5
7E2
  8
LAYER1
 66
     1
 10
0.0
 20
0.0
 30
0.0
 70
     1
  0
VERTEX
  5
CD1
  8
LAYER1
 10
124229.7880356166
 20
-65940.178156509195
 30
0.0
  0
VERTEX
  5
CD2
  8
LAYER1
 10
124229.7880356166
 20
-64247.496414455571
 30
0.0
  0
VERTEX
  5
CD3
  8
LAYER1
 10
122929.49233885171
 20
-64247.496414455571
 30
0.0
  0
VERTEX
  5
CD4
  8
LAYER1
 10
122929.49233885171
 20
-65940.178156509195
 30
0.0
  0
SEQEND
  5
CD5
  8
LAYER1
  0
POLYLINE
  5
7E3
  8
LAYER1
 66
     1
 10
0.0
 20
0.0
 30
0.0
 70
     1
  0
VERTEX
  5
CD6
  8
LAYER1
 10
124158.5389411608
 20
-65886.725030703194
 30
0.0
  0
VERTEX
  5
CD7
  8
LAYER1
 10
124158.5389411608
 20
-64300.949540261543
 30
0.0
  0
VERTEX
  5
CD8
  8
LAYER1
 10
122982.92915969351
 20
-64300.949540261543
 30
0.0
  0
VERTEX
  5
CD9
  8
LAYER1
 10
122982.92915969351
 20
-65886.725030703194
 30
0.0
  0
SEQEND
  5
CDA
  8
LAYER1
  0
POLYLINE
  5
7E4
  8
LAYER1
 66
     1
 10
0.0
 20
0.0
 30
0.0
 70
     1
  0
VERTEX
  5
CDB
  8
LAYER1
 10
124229.7880356166
 20
-68412.463607844984
 30
0.0
  0
VERTEX
  5
CDC
  8
LAYER1
 10
124229.7880356166
 20
-66719.781865791374
 30
0.0
  0
VERTEX
  5
CDD
  8
LAYER1
 10
122929.49233885171
 20
-66719.781865791374
 30
0.0
  0
VERTEX
  5
CDE
  8
LAYER1
 10
122929.49233885171
 20
-68412.463607844984
 30
0.0
  0
SEQEND
  5
CDF
  8
LAYER1
  0
POLYLINE
  5
7E5
  8
LAYER1
 66
     1
 10
0.0
 20
0.0
 30
0.0
 70
     1
  0
VERTEX
  5
CE0
  8
LAYER1
 10
124158.5389411608
 20
-68359.010482038997
 30
0.0
  0
VERTEX
  5
CE1
  8
LAYER1
 10
124158.5389411608
 20
-66773.234991597346
 30
0.0
  0
VERTEX
  5
CE2
  8
LAYER1
 10
122982.92915969351
 20
-66773.234991597346
 30
0.0
  0
VERTEX
  5
CE3
  8
LAYER1
 10
122982.92915969351
 20
-68359.010482038997
 30
0.0
  0
SEQEND
  5
CE4
  8
LAYER1
  0
POLYLINE
  5
7E6
  8
LAYER1
 66
     1
 10
0.0
 20
0.0
 30
0.0
 70
     1
  0
VERTEX
  5
CE5
  8
LAYER1
 10
120934.51776609151
 20
-68359.010482038997
 30
0.0
  0
VERTEX
  5
CE6
  8
LAYER1
 10
120934.51776609151
 20
-66773.234991597346
 30
0.0
  0
VERTEX
  5
CE7
  8
LAYER1
 10
119758.90798462419
 20
-66773.234991597346
 30
0.0
  0
VERTEX
  5
CE8
  8
LAYER1
 10
119758.90798462419
 20
-68359.010482038997
 30
0.0
  0
SEQEND
  5
CE9
  8
LAYER1
  0
POLYLINE
  5
7E7
  8
LAYER1
 66
     1
 10
0.0
 20
0.0
 30
0.0
 70
     1
  0
VERTEX
  5
CEA
  8
LAYER1
 10
121005.7668605473
 20
-68412.463607844984
 30
0.0
  0
VERTEX
  5
CEB
  8
LAYER1
 10
121005.7668605473
 20
-66719.781865791374
 30
0.0
  0
VERTEX
  5
CEC
  8
LAYER1
 10
119705.47116378239
 20
-66719.781865791374
 30
0.0
  0
VERTEX
  5
CED
  8
LAYER1
 10
119705.47116378239
 20
-68412.463607844984
 30
0.0
  0
SEQEND
  5
CEE
  8
LAYER1
  0
POLYLINE
  5
7E8
  8
LAYER1
 66
     1
 10
0.0
 20
0.0
 30
0.0
 70
     1
  0
VERTEX
  5
CEF
  8
LAYER1
 10
120934.51776609151
 20
-65886.725030703194
 30
0.0
  0
VERTEX
  5
CF0
  8
LAYER1
 10
120934.51776609151
 20
-64300.949540261543
 30
0.0
  0
VERTEX
  5
CF1
  8
LAYER1
 10
119758.90798462419
 20
-64300.949540261543
 30
0.0
  0
VERTEX
  5
CF2
  8
LAYER1
 10
119758.90798462419
 20
-65886.725030703194
 30
0.0
  0
SEQEND
  5
CF3
  8
LAYER1
  0
POLYLINE
  5
7E9
  8
LAYER1
 66
     1
 10
0.0
 20
0.0
 30
0.0
 70
     1
  0
VERTEX
  5
CF4
  8
LAYER1
 10
121005.7668605473
 20
-65940.178156509195
 30
0.0
  0
VERTEX
  5
CF5
  8
LAYER1
 10
121005.7668605473
 20
-64247.496414455571
 30
0.0
  0
VERTEX
  5
CF6
  8
LAYER1
 10
119705.47116378239
 20
-64247.496414455571
 30
0.0
  0
VERTEX
  5
CF7
  8
LAYER1
 10
119705.47116378239
 20
-65940.178156509195
 30
0.0
  0
SEQEND
  5
CF8
  8
LAYER1
  0
POLYLINE
  5
7EA
  8
LAYER1
 66
     1
 10
0.0
 20
0.0
 30
0.0
 70
     1
  0
VERTEX
  5
CF9
  8
LAYER1
 10
124247.60028377709
 20
-51472.203522531709
 30
0.0
  0
VERTEX
  5
CFA
  8
LAYER1
 10
124247.60028377709
 20
-48051.204600305078
 30
0.0
  0
VERTEX
  5
CFB
  8
LAYER1
 10
122929.4922656343
 20
-48051.204600305078
 30
0.0
  0
VERTEX
  5
CFC
  8
LAYER1
 10
122929.4922656343
 20
-51472.203522531709
 30
0.0
  0
SEQEND
  5
CFD
  8
LAYER1
  0
POLYLINE
  5
7EB
  8
LAYER1
 66
     1
 10
0.0
 20
0.0
 30
0.0
 70
     1
  0
VERTEX
  5
CFE
  8
LAYER1
 10
124301.03716611391
 20
-51525.656684349189
 30
0.0
  0
VERTEX
  5
CFF
  8
LAYER1
 10
124301.03716611391
 20
-47997.75143848759
 30
0.0
  0
VERTEX
  5
D00
  8
LAYER1
 10
122858.243135137
 20
-47997.75143848759
 30
0.0
  0
VERTEX
  5
D01
  8
LAYER1
 10
122858.243135137
 20
-51525.656684349189
 30
0.0
  0
SEQEND
  5
D02
  8
LAYER1
  0
POLYLINE
  5
7EC
  8
LAYER1
 66
     1
 10
0.0
 20
0.0
 30
0.0
 70
     1
  0
VERTEX
  5
D03
  8
LAYER1
 10
124158.5389411608
 20
-73984.010482038982
 30
0.0
  0
VERTEX
  5
D04
  8
LAYER1
 10
124158.5389411608
 20
-72398.234991597332
 30
0.0
  0
VERTEX
  5
D05
  8
LAYER1
 10
122982.92915969351
 20
-72398.234991597332
 30
0.0
  0
VERTEX
  5
D06
  8
LAYER1
 10
122982.92915969351
 20
-73984.010482038982
 30
0.0
  0
SEQEND
  5
D07
  8
LAYER1
  0
POLYLINE
  5
7ED
  8
LAYER1
 66
     1
 10
0.0
 20
0.0
 30
0.0
 70
     1
  0
VERTEX
  5
D08
  8
LAYER1
 10
124229.7880356166
 20
-74037.463607844984
 30
0.0
  0
VERTEX
  5
D09
  8
LAYER1
 10
124229.7880356166
 20
-72344.781865791359
 30
0.0
  0
VERTEX
  5
D0A
  8
LAYER1
 10
122929.49233885171
 20
-72344.781865791359
 30
0.0
  0
VERTEX
  5
D0B
  8
LAYER1
 10
122929.49233885171
 20
-74037.463607844984
 30
0.0
  0
SEQEND
  5
D0C
  8
LAYER1
  0
POLYLINE
  5
7EE
  8
LAYER1
 66
     1
 10
0.0
 20
0.0
 30
0.0
 70
     1
  0
VERTEX
  5
D0D
  8
LAYER1
 10
124229.7880356166
 20
-71565.178156509181
 30
0.0
  0
VERTEX
  5
D0E
  8
LAYER1
 10
124229.7880356166
 20
-69872.496414455556
 30
0.0
  0
VERTEX
  5
D0F
  8
LAYER1
 10
122929.49233885171
 20
-69872.496414455556
 30
0.0
  0
VERTEX
  5
D10
  8
LAYER1
 10
122929.49233885171
 20
-71565.178156509181
 30
0.0
  0
SEQEND
  5
D11
  8
LAYER1
  0
POLYLINE
  5
7EF
  8
LAYER1
 66
     1
 10
0.0
 20
0.0
 30
0.0
 70
     1
  0
VERTEX
  5
D12
  8
LAYER1
 10
124158.5389411608
 20
-71511.725030703179
 30
0.0
  0
VERTEX
  5
D13
  8
LAYER1
 10
124158.5389411608
 20
-69925.949540261528
 30
0.0
  0
VERTEX
  5
D14
  8
LAYER1
 10
122982.92915969351
 20
-69925.949540261528
 30
0.0
  0
VERTEX
  5
D15
  8
LAYER1
 10
122982.92915969351
 20
-71511.725030703179
 30
0.0
  0
SEQEND
  5
D16
  8
LAYER1
  0
POLYLINE
  5
7F0
  8
LAYER1
 66
     1
 10
0.0
 20
0.0
 30
0.0
 70
     1
  0
VERTEX
  5
D17
  8
LAYER1
 10
121005.7668605473
 20
-71565.178156509181
 30
0.0
  0
VERTEX
  5
D18
  8
LAYER1
 10
121005.7668605473
 20
-69872.496414455556
 30
0.0
  0
VERTEX
  5
D19
  8
LAYER1
 10
119705.47116378239
 20
-69872.496414455556
 30
0.0
  0
VERTEX
  5
D1A
  8
LAYER1
 10
119705.47116378239
 20
-71565.178156509181
 30
0.0
  0
SEQEND
  5
D1B
  8
LAYER1
  0
POLYLINE
  5
7F1
  8
LAYER1
 66
     1
 10
0.0
 20
0.0
 30
0.0
 70
     1
  0
VERTEX
  5
D1C
  8
LAYER1
 10
120934.51776609151
 20
-71511.725030703179
 30
0.0
  0
VERTEX
  5
D1D
  8
LAYER1
 10
120934.51776609151
 20
-69925.949540261528
 30
0.0
  0
VERTEX
  5
D1E
  8
LAYER1
 10
119758.90798462419
 20
-69925.949540261528
 30
0.0
  0
VERTEX
  5
D1F
  8
LAYER1
 10
119758.90798462419
 20
-71511.725030703179
 30
0.0
  0
SEQEND
  5
D20
  8
LAYER1
  0
POLYLINE
  5
7F2
  8
LAYER1
 66
     1
 10
0.0
 20
0.0
 30
0.0
 70
     1
  0
VERTEX
  5
D21
  8
LAYER1
 10
121005.7668605473
 20
-74037.463607844984
 30
0.0
  0
VERTEX
  5
D22
  8
LAYER1
 10
121005.7668605473
 20
-72344.781865791359
 30
0.0
  0
VERTEX
  5
D23
  8
LAYER1
 10
119705.47116378239
 20
-72344.781865791359
 30
0.0
  0
VERTEX
  5
D24
  8
LAYER1
 10
119705.47116378239
 20
-74037.463607844984
 30
0.0
  0
SEQEND
  5
D25
  8
LAYER1
  0
POLYLINE
  5
7F3
  8
LAYER1
 66
     1
 10
0.0
 20
0.0
 30
0.0
 70
     1
  0
VERTEX
  5
D26
  8
LAYER1
 10
120934.51776609151
 20
-73984.010482038982
 30
0.0
  0
VERTEX
  5
D27
  8
LAYER1
 10
120934.51776609151
 20
-72398.234991597332
 30
0.0
  0
VERTEX
  5
D28
  8
LAYER1
 10
119758.90798462419
 20
-72398.234991597332
 30
0.0
  0
VERTEX
  5
D29
  8
LAYER1
 10
119758.90798462419
 20
-73984.010482038982
 30
0.0
  0
SEQEND
  5
D2A
  8
LAYER1
  0
ARC
  5
7F4
  8
LAYER3
 10
109992.50264925339
 20
-51529.687259268248
 30
0.0
 40
5456.9336627816874
 50
105.78075330958509
 51
254.21924669041479
  0
ARC
  5
7F5
  8
LAYER3
 10
114592.50264925339
 20
-52829.687259268248
 30
0.0
 40
5456.9336627816874
 50
254.21924669041479
 51
0.0
  0
ARC
  5
7F6
  8
LAYER3
 10
116592.50264925339
 20
-51529.687259268248
 30
0.0
 40
5544.7663869898597
 50
180.0
 51
0.0
  0
ARC
  5
7F8
  8
LAYER3
 10
109891.8989004803
 20
-54054.687259268263
 30
0.0
 40
14571.61273181192
 50
90.0
 51
270.0
  0
LINE
  5
800
  8
LAYER3
 10
118546.7593389469
 20
-57253.659378954537
 30
0.0
 11
117049.1163130332
 21
-55484.687259268248
 31
0.0
  0
LINE
  5
802
  8
LAYER1
 10
119092.50264925339
 20
-52129.687259268248
 30
0.0
 11
119092.50264925339
 21
-74629.687259268234
 31
0.0
  0
LINE
  5
804
  8
LAYER1
 10
125092.50264925339
 20
-74629.687259268234
 30
0.0
 11
125092.50264925339
 21
-43754.455268361868
 31
0.0
  0
LINE
  5
805
  8
LAYER4
 10
116942.50264925339
 20
-70489.488967307756
 30
0.0
 11
97177.368207763633
 21
-70489.488967307756
 31
0.0
  0
LINE
  5
806
  8
LAYER3
 10
115091.8989004803
 20
-68626.299991080174
 30
0.0
 11
109891.8989004803
 21
-68626.299991080174
 31
0.0
  0
LINE
  5
807
  8
LAYER1
 10
125092.50264925339
 20
-74629.687259268234
 30
0.0
 11
116942.50264925339
 21
-74629.687259268234
 31
0.0
  0
LINE
  5
808
  8
LAYER4
 10
116942.50264925339
 20
-57754.687259268248
 30
0.0
 11
125092.50264925339
 21
-57754.687259268212
 31
0.0
  0
LINE
  5
809
  8
LAYER1
 10
125092.50264925339
 20
-69004.687259268248
 30
0.0
 11
116942.50264925339
 21
-69004.687259268248
 31
0.0
  0
LINE
  5
80B
  8
LAYER1
 10
125092.50264925339
 20
-63379.687259268248
 30
0.0
 11
116942.50264925339
 21
-63379.687259268248
 31
0.0
  0
LINE
  5
80D
  8
LAYER3
 10
115091.2739005784
 20
-68626.300341218652
 30
0.0
 11
116347.3737367674
 21
-61474.838873290792
 31
0.0
  0
LINE
  5
80E
  8
LAYER3
 10
116347.3737367674
 20
-61474.838873290792
 30
0.0
 11
116497.044098407
 21
-58215.291961626899
 31
0.0
  0
LINE
  5
80F
  8
LAYER3
 10
116497.044098407
 20
-58215.291961626899
 30
0.0
 11
116762.6145022109
 21
-57247.077225342291
 31
0.0
  0
LINE
  5
810
  8
LAYER3
 10
116666.7285442124
 20
-56231.496144909746
 30
0.0
 11
118546.7593389469
 21
-57253.659378954537
 31
0.0
  0
LINE
  5
811
  8
LAYER3
 10
116762.6145022109
 20
-57247.077225342291
 30
0.0
 11
116666.7285442124
 21
-56231.496144909746
 31
0.0
  0
LINE
  5
812
  8
LAYER3
 10
108508.4513126066
 20
-56780.94583509527
 30
0.0
 11
113108.4513126066
 21
-58080.945835095277
 31
0.0
  0
LINE
  5
813
  8
LAYER4
 10
122092.50264925339
 20
-38402.609935500383
 30
0.0
 11
97177.368207763633
 21
-38402.609935500383
 31
0.0
  0
ARC
  5
814
  8
LAYER3
 10
114592.50264925339
 20
-50229.687259268248
 30
0.0
 40
5456.9336627816874
 50
0.0
 51
105.78075330958509
  0
ARC
  5
815
  8
LAYER3
 10
116592.50264925339
 20
-47317.847195319373
 30
0.0
 40
5544.7663869898597
 50
0.0
 51
180.0
  0
LINE
  5
816
  8
LAYER3
 10
115091.8989004803
 20
-39483.074527456323
 30
0.0
 11
109891.8989004803
 21
-39483.074527456323
 31
0.0
  0
LINE
  5
817
  8
LAYER3
 10
115091.5572261592
 20
-39484.687259268241
 30
0.0
 11
109675.1095882361
 21
-39484.687259268241
 31
0.0
  0
LINE
  5
818
  8
LAYER2
 10
115092.50264925339
 20
-54054.687259268248
 30
0.0
 11
109891.8989004803
 21
-54054.687259268248
 31
0.0
  0
LINE
  5
819
  8
LAYER2
 10
114592.50264925339
 20
-51529.687259268241
 30
0.0
 11
109992.50264925339
 21
-51529.687259268241
 31
0.0
  0
LINE
  5
81A
  8
LAYER3
 10
115091.2739005784
 20
-39483.074177317831
 30
0.0
 11
116347.3737367674
 21
-46634.535645245698
 31
0.0
  0
LINE
  5
81B
  8
LAYER4
 10
122092.50264925339
 20
-47729.687259268241
 30
0.0
 11
122092.50264925339
 21
-38402.609935500383
 31
0.0
  0
LINE
  5
81C
  8
LAYER1
 10
116942.50264925339
 20
-52129.687259268248
 30
0.0
 11
125092.50264925339
 21
-52129.687259268248
 31
0.0
  0
LINE
  5
81D
  8
LAYER1
 10
122292.50264925339
 20
-47629.687259268248
 30
0.0
 11
125092.50264925339
 21
-47629.687259268248
 31
0.0
  0
LINE
  5
81E
  8
LAYER4
 10
122092.50264925339
 20
-46614.687259268248
 30
0.0
 11
125092.50264925339
 21
-46614.687259268248
 31
0.0
  0
LINE
  5
81F
  8
LAYER3
 10
122137.26903624331
 20
-51529.687259268241
 30
0.0
 11
122137.26903624331
 21
-47317.847195319358
 31
0.0
  0
LINE
  5
820
  8
LAYER3
 10
116347.3737367674
 20
-46634.535645245698
 30
0.0
 11
116497.044098407
 21
-49894.08255690959
 31
0.0
  0
LINE
  5
821
  8
LAYER2
 10
116592.50264925339
 20
-51529.687259268241
 30
0.0
 11
116592.50264925339
 21
-47317.847195319358
 31
0.0
  0
LINE
  5
822
  8
LAYER1
 10
122292.50264925339
 20
-47629.687259268248
 30
0.0
 11
122292.50264925339
 21
-52129.687259268248
 31
0.0
  0
LINE
  5
823
  8
LAYER1
 10
119242.50264925339
 20
-48129.687259268248
 30
0.0
 11
119242.50264925339
 21
-52129.687259268248
 31
0.0
  0
LINE
  5
824
  8
LAYER1
 10
121292.50264925339
 20
-48129.687259268248
 30
0.0
 11
121292.50264925339
 21
-52129.687259268248
 31
0.0
  0
LINE
  5
825
  8
LAYER1
 10
114592.50264925339
 20
-51529.687259268241
 30
0.0
 11
119742.50264925339
 21
-51529.687259268241
 31
0.0
  0
LINE
  5
826
  8
LAYER3
 10
120049.4363120351
 20
-50229.687259268241
 30
0.0
 11
120049.4363120351
 21
-52829.687259268241
 31
0.0
  0
LINE
  5
827
  8
LAYER3
 10
118546.7593389469
 20
-50855.715139581953
 30
0.0
 11
117049.1163130332
 21
-52624.687259268248
 31
0.0
  0
LINE
  5
828
  8
LAYER2
 10
114592.50264925339
 20
-52829.687259268241
 30
0.0
 11
114592.50264925339
 21
-50229.687259268241
 31
0.0
  0
LINE
  5
829
  8
LAYER3
 10
116500.1739872878
 20
-53506.370365204537
 30
0.0
 11
115541.8989004803
 21
-53754.579294004252
 31
0.0
  0
LINE
  5
82A
  8
LAYER3
 10
116500.1739872878
 20
-54603.00415333196
 30
0.0
 11
115541.8989004803
 21
-54354.79522453223
 31
0.0
  0
LINE
  5
82B
  8
LAYER1
 10
115092.50264925339
 20
-54054.687259268248
 30
0.0
 11
118092.50264925339
 21
-54054.687259268248
 31
0.0
  0
LINE
  5
82C
  8
LAYER3
 10
118098.91528699519
 20
-55449.151717910383
 30
0.0
 11
116500.1739872878
 21
-54603.00415333196
 31
0.0
  0
LINE
  5
82D
  8
LAYER3
 10
117049.1163130332
 20
-55484.687259268248
 30
0.0
 11
118098.91528699519
 21
-55449.151717910383
 31
0.0
  0
LINE
  5
82E
  8
LAYER3
 10
118098.91528699519
 20
-52660.222800626107
 30
0.0
 11
116500.1739872878
 21
-53506.370365204537
 31
0.0
  0
LINE
  5
82F
  8
LAYER3
 10
117049.1163130332
 20
-52624.687259268248
 30
0.0
 11
118098.91528699519
 21
-52660.222800626107
 31
0.0
  0
POINT
  5
830
  8
LAYER1
 10
118092.50264925339
 20
-54054.687259268248
 30
0.0
  0
LINE
  5
831
  8
LAYER3
 10
115541.8989004803
 20
-54354.79522453223
 30
0.0
 11
115541.8989004803
 21
-53754.579294004252
 31
0.0
  0
LINE
  5
832
  8
LAYER2
 10
115091.8989004803
 20
-53754.687259268248
 30
0.0
 11
115091.8989004803
 21
-54354.687259268248
 31
0.0
  0
LINE
  5
833
  8
LAYER3
 10
116497.044098407
 20
-49894.08255690959
 30
0.0
 11
116762.6145022109
 21
-50862.297293194213
 31
0.0
  0
LINE
  5
834
  8
LAYER3
 10
116666.7285442124
 20
-51877.878373626751
 30
0.0
 11
118546.7593389469
 21
-50855.715139581953
 31
0.0
  0
LINE
  5
835
  8
LAYER3
 10
116762.6145022109
 20
-50862.297293194213
 30
0.0
 11
116666.7285442124
 21
-51877.878373626751
 31
0.0
  0
LINE
  5
837
  8
LAYER1
 10
119242.50264925339
 20
-48129.687259268248
 30
0.0
 11
121292.50264925339
 21
-48129.687259268248
 31
0.0
  0
LINE
  5
838
  8
LAYER1
 10
121292.50264925339
 20
-48129.687259268248
 30
0.0
 11
122292.50264925339
 21
-47629.687259268248
 31
0.0
  0
LINE
  5
839
  8
LAYER3
 10
111047.7362622635
 20
-51529.687259268241
 30
0.0
 11
111047.7362622635
 21
-47317.847195319358
 31
0.0
  0
LINE
  5
83A
  8
LAYER3
 10
108508.4513126066
 20
-46278.42868344122
 30
0.0
 11
113108.4513126066
 21
-44978.42868344122
 31
0.0
  0
LINE
  5
964
  8
LAYER6
 10
116592.50264925339
 20
-47317.847195319358
 30
0.0
 11
125092.50264925339
 21
-47317.847195319358
 31
0.0
  0
LINE
  5
965
  8
LAYER6
 10
116942.50264925339
 20
-74629.687259268234
 30
0.0
 11
116942.50264925339
 21
-70489.488967307756
 31
0.0
  0
LINE
  5
966
  8
LAYER4
 10
116942.50264925339
 20
-57754.687259268248
 30
0.0
 11
116942.50264925339
 21
-70489.488967307756
 31
0.0
  0
LINE
  5
973
  8
LAYER6
 10
116942.50264925339
 20
-57754.687259268227
 30
0.0
 11
116942.50264925339
 21
-52129.687259268248
 31
0.0
  0
VIEWPORT
  5
970
 67
     1
  8
0
 10
138.27126264572141
 20
100.8062499761581
 30
0.0
 40
222.28807030271869
 41
166.2743037796966
 68
     1
 69
     1
1001
ACAD
1000
MVIEW
1002
{
1070
    16
1010
0.0
1020
0.0
1030
0.0
1010
0.0
1020
0.0
1030
1.0
1040
0.0
1040
166.2743037796966
1040
138.27126264572141
1040
100.8062499761581
1040
50.0
1040
0.0
1040
0.0
1070
     0
1070
   100
1070
     1
1070
     1
1070
     0
1070
     0
1070
     0
1070
     0
1040
0.0
1040
0.0
1040
0.0
1040
10.0
1040
10.0
1040
10.0
1040
10.0
1070
     0
1002
{
1002
}
1002
}
  0
VIEWPORT
  5
972
 67
     1
  8
LAYER4
 10
138.27126264572141
 20
100.8062499761581
 30
0.0
 40
221.23402023315421
 41
161.289999961853
 68
     2
 69
     2
1001
ACAD
1000
MVIEW
1002
{
1070
    16
1010
0.0
1020
0.0
1030
0.0
1010
0.0
1020
0.0
1030
1.0
1040
0.0
1040
43598.988004483152
1040
117271.87731580839
1040
-56358.651736384789
1040
50.0
1040
0.0
1040
0.0
1070
     0
1070
   100
1070
     1
1070
     3
1070
     0
1070
     0
1070
     0
1070
     0
1040
0.0
1040
0.0
1040
0.0
1040
10.0
1040
10.0
1040
10.0
1040
10.0
1070
     0
1002
{
1002
}
1002
}
  0
ENDSEC
  0
EOF
