  0
SECTION
  2
HEADER
  9
$ACADVER
  1
AC1009
  9
$INSBASE
 10
0.0
 20
0.0
 30
0.0
  9
$EXTMIN
 10
8889.9156258629082
 20
4125.0365170647683
 30
0.0
  9
$EXTMAX
 10
90549.683990267527
 20
60717.435091940752
 30
0.0
  9
$LIMMIN
 10
0.0
 20
0.0
  9
$LIMMAX
 10
50000.0
 20
50000.0
  9
$ORTHOMODE
 70
     0
  9
$REGENMODE
 70
     1
  9
$FILLMODE
 70
     1
  9
$QTEXTMODE
 70
     0
  9
$MIRRTEXT
 70
     1
  9
$DRAGMODE
 70
     2
  9
$LTSCALE
 40
1.0
  9
$OSMODE
 70
    37
  9
$ATTMODE
 70
     1
  9
$TEXTSIZE
 40
2.5
  9
$TRACEWID
 40
1.0
  9
$TEXTSTYLE
  7
STANDARD
  9
$CLAYER
  8
LAYER1
  9
$CELTYPE
  6
BYLAYER
  9
$CECOLOR
 62
   256
  9
$DIMSCALE
 40
1.0
  9
$DIMASZ
 40
200.0
  9
$DIMEXO
 40
0.625
  9
$DIMDLI
 40
3.75
  9
$DIMRND
 40
0.0
  9
$DIMDLE
 40
0.0
  9
$DIMEXE
 40
1.25
  9
$DIMTP
 40
0.0
  9
$DIMTM
 40
0.0
  9
$DIMTXT
 40
200.0
  9
$DIMCEN
 40
2.5
  9
$DIMTSZ
 40
0.0
  9
$DIMTOL
 70
     0
  9
$DIMLIM
 70
     0
  9
$DIMTIH
 70
     0
  9
$DIMTOH
 70
     0
  9
$DIMSE1
 70
     0
  9
$DIMSE2
 70
     0
  9
$DIMTAD
 70
     1
  9
$DIMZIN
 70
     8
  9
$DIMBLK
  1

  9
$DIMASO
 70
     1
  9
$DIMSHO
 70
     1
  9
$DIMPOST
  1

  9
$DIMAPOST
  1

  9
$DIMALT
 70
     0
  9
$DIMALTD
 70
     3
  9
$DIMALTF
 40
0.03937007874016
  9
$DIMLFAC
 40
1.0
  9
$DIMTOFL
 70
     1
  9
$DIMTVP
 40
0.0
  9
$DIMTIX
 70
     0
  9
$DIMSOXD
 70
     0
  9
$DIMSAH
 70
     0
  9
$DIMBLK1
  1

  9
$DIMBLK2
  1

  9
$DIMSTYLE
  2
ISO-25
  9
$DIMCLRD
 70
     0
  9
$DIMCLRE
 70
     0
  9
$DIMCLRT
 70
     0
  9
$DIMTFAC
 40
1.0
  9
$DIMGAP
 40
0.625
  9
$LUNITS
 70
     2
  9
$LUPREC
 70
     4
  9
$SKETCHINC
 40
1.0
  9
$FILLETRAD
 40
10.0
  9
$AUNITS
 70
     0
  9
$AUPREC
 70
     0
  9
$MENU
  1
.
  9
$ELEVATION
 40
0.0
  9
$PELEVATION
 40
0.0
  9
$THICKNESS
 40
0.0
  9
$LIMCHECK
 70
     0
  9
$BLIPMODE
 70
     0
  9
$CHAMFERA
 40
10.0
  9
$CHAMFERB
 40
10.0
  9
$SKPOLY
 70
     0
  9
$TDCREATE
 40
2453269.6833723029
  9
$TDUPDATE
 40
2453273.50602199
  9
$TDINDWG
 40
0.4864334606
  9
$TDUSRTIMER
 40
0.4864289468
  9
$USRTIMER
 70
     1
  9
$ANGBASE
 50
90.0
  9
$ANGDIR
 70
     0
  9
$PDMODE
 70
     0
  9
$PDSIZE
 40
0.0
  9
$PLINEWID
 40
0.0
  9
$COORDS
 70
     2
  9
$SPLFRAME
 70
     0
  9
$SPLINETYPE
 70
     6
  9
$SPLINESEGS
 70
     8
  9
$ATTDIA
 70
     0
  9
$ATTREQ
 70
     1
  9
$HANDLING
 70
 22529
  9
$HANDSEED
  5
2C79
  9
$SURFTAB1
 70
     6
  9
$SURFTAB2
 70
     6
  9
$SURFTYPE
 70
     6
  9
$SURFU
 70
     6
  9
$SURFV
 70
     6
  9
$UCSNAME
  2

  9
$UCSORG
 10
0.0
 20
0.0
 30
0.0
  9
$UCSXDIR
 10
1.0
 20
0.0
 30
0.0
  9
$UCSYDIR
 10
0.0
 20
1.0
 30
0.0
  9
$PUCSNAME
  2

  9
$PUCSORG
 10
0.0
 20
0.0
 30
0.0
  9
$PUCSXDIR
 10
1.0
 20
0.0
 30
0.0
  9
$PUCSYDIR
 10
0.0
 20
1.0
 30
0.0
  9
$USERI1
 70
     0
  9
$USERI2
 70
     0
  9
$USERI3
 70
     0
  9
$USERI4
 70
     0
  9
$USERI5
 70
     0
  9
$USERR1
 40
0.0
  9
$USERR2
 40
0.0
  9
$USERR3
 40
0.0
  9
$USERR4
 40
0.0
  9
$USERR5
 40
0.0
  9
$WORLDVIEW
 70
     1
  9
$SHADEDGE
 70
     3
  9
$SHADEDIF
 70
    70
  9
$TILEMODE
 70
     1
  9
$MAXACTVP
 70
    64
  9
$PLIMCHECK
 70
     0
  9
$PEXTMIN
 10
1.1445000838107009
 20
0.8019999828864264
 30
0.0
  9
$PEXTMAX
 10
10.3005007542963
 20
7.2179998459778432
 30
0.0
  9
$PLIMMIN
 10
1.044314705541437
 20
0.7016025329786582
  9
$PLIMMAX
 10
10.401439326981921
 20
7.3183975540529911
  9
$UNITMODE
 70
     0
  9
$VISRETAIN
 70
     1
  9
$PLINEGEN
 70
     0
  9
$PSLTSCALE
 70
     1
  0
ENDSEC
  0
SECTION
  2
TABLES
  0
TABLE
  2
VPORT
 70
     6
  0
VPORT
  2
*ACTIVE
 70
     0
 10
0.0
 20
0.0
 11
1.0
 21
1.0
 12
67535.2439866778
 22
32702.698262312351
 13
0.0
 23
0.0
 14
10.0
 24
10.0
 15
10.0
 25
10.0
 16
0.0
 26
0.0
 36
1.0
 17
0.0
 27
0.0
 37
0.0
 40
124519.1633774872
 41
1.383938393839383
 42
50.0
 43
0.0
 44
0.0
 50
0.0
 51
0.0
 71
     0
 72
   100
 73
     1
 74
     0
 75
     0
 76
     0
 77
     0
 78
     0
  0
ENDTAB
  0
TABLE
  2
LTYPE
 70
     1
  0
LTYPE
  2
CONTINUOUS
 70
     0
  3
Solid line
 72
    65
 73
     0
 40
0.0
  0
ENDTAB
  0
TABLE
  2
LAYER
 70
     8
  0
LAYER
  2
0
 70
     0
 62
     7
  6
CONTINUOUS
  0
LAYER
  2
LAYER3
 70
     0
 62
     1
  6
CONTINUOUS
  0
LAYER
  2
LAYER4
 70
     0
 62
     3
  6
CONTINUOUS
  0
LAYER
  2
DEFPOINTS
 70
     0
 62
     7
  6
CONTINUOUS
  0
LAYER
  2
LAYER2
 70
     0
 62
     5
  6
CONTINUOUS
  0
LAYER
  2
LAYER1
 70
     0
 62
     7
  6
CONTINUOUS
  0
LAYER
  2
LAYER5
 70
     0
 62
     6
  6
CONTINUOUS
  0
LAYER
  2
LAYER6
 70
     0
 62
     7
  6
CONTINUOUS
  0
ENDTAB
  0
TABLE
  2
STYLE
 70
     1
  0
STYLE
  2
STANDARD
 70
     0
 40
0.0
 41
1.0
 50
0.0
 71
     0
 42
2.5
  3
txt
  4

  0
ENDTAB
  0
TABLE
  2
VIEW
 70
     0
  0
ENDTAB
  0
TABLE
  2
UCS
 70
     0
  0
ENDTAB
  0
TABLE
  2
APPID
 70
     1
  0
APPID
  2
ACAD
 70
     0
  0
ENDTAB
  0
TABLE
  2
DIMSTYLE
 70
     1
  0
DIMSTYLE
  2
ISO-25
 70
     0
  3

  4

  5

  6

  7

 40
1.0
 41
2.5
 42
0.625
 43
3.75
 44
1.25
 45
0.0
 46
0.0
 47
0.0
 48
0.0
140
2.5
141
2.5
142
0.0
143
0.03937007874016
144
1.0
145
0.0
146
1.0
147
0.625
 71
     0
 72
     0
 73
     0
 74
     0
 75
     0
 76
     0
 77
     1
 78
     8
170
     0
171
     3
172
     1
173
     0
174
     0
175
     0
176
     0
177
     0
178
     0
  0
ENDTAB
  0
ENDSEC
  0
SECTION
  2
BLOCKS
  0
BLOCK
  8
0
  2
$MODEL_SPACE
 70
     0
 10
0.0
 20
0.0
 30
0.0
  3
$MODEL_SPACE
  1

  0
ENDBLK
  5
1FD2
  8
0
  0
BLOCK
 67
     1
  8
0
  2
$PAPER_SPACE
 70
     0
 10
0.0
 20
0.0
 30
0.0
  3
$PAPER_SPACE
  1

  0
ENDBLK
  5
1FCE
 67
     1
  8
0
  0
BLOCK
  8
0
  2
*D2
 70
     1
 10
0.0
 20
0.0
 30
0.0
  3
*D2
  1

  0
LINE
  5
2C6C
  8
LAYER3
 62
     0
 10
81361.912017295806
 20
45828.089551391349
 30
0.0
 11
83994.084294889108
 21
46164.605567825543
 31
0.0
  0
LINE
  5
2C6D
  8
LAYER3
 62
     0
 10
82065.071953346924
 20
40328.089551391349
 30
0.0
 11
84697.244230940225
 21
40664.605567825543
 31
0.0
  0
LINE
  5
2C6E
  8
LAYER3
 62
     0
 10
84018.207401026433
 20
45966.061773537513
 30
0.0
 11
84670.641308859806
 21
40862.832324437208
 31
0.0
  0
SOLID
  5
2C6F
  8
LAYER3
 62
     0
 10
84051.271613601406
 20
45970.28894255565
 30
0.0
 11
83985.14318845146
 21
45961.834604519361
 31
0.0
 12
83992.844386917553
 22
46164.447048987357
 32
0.0
 13
83992.844386917553
 23
46164.447048987357
 33
0.0
  0
SOLID
  5
2C70
  8
LAYER3
 62
     0
 10
84703.705521434778
 20
40867.059493455352
 30
0.0
 11
84637.577096284833
 21
40858.605155419064
 31
0.0
 12
84696.004322968685
 22
40664.447048987357
 32
0.0
 13
84696.004322968685
 23
40664.447048987357
 33
0.0
  0
TEXT
  8
0
  40
200
  5
2C75
  62
0
  72
0
  71
0
 10
84044.2
 20
43073.2
 30
0.000000
  1
5544.7664
  0
POINT
  5
2C72
  8
DEFPOINTS
 62
     0
 10
81361.292063310015
 20
45828.01029197227
 30
0.0
  0
POINT
  5
2C73
  8
DEFPOINTS
 62
     0
 10
82064.451999361147
 20
40328.010291972263
 30
0.0
  0
POINT
  5
2C74
  8
DEFPOINTS
 62
     0
 10
84696.004322968685
 20
40664.447048987357
 30
0.0
  0
ENDBLK
  5
2711
  8
0
  0
BLOCK
  8
0
  2
*D3
 70
     1
 10
0.0
 20
0.0
 30
0.0
  3
*D3
  1

  0
LINE
  5
2BE1
  8
LAYER3
 62
     0
 10
70924.182846373282
 20
45478.574367914953
 30
0.0
 11
69698.913693385402
 21
48046.425677900203
 31
0.0
  0
LINE
  5
2BE2
  8
LAYER3
 62
     0
 10
75849.182846373282
 20
47828.574367914938
 30
0.0
 11
74623.913693385402
 21
50396.425677900188
 31
0.0
  0
LINE
  5
2BE3
  8
LAYER3
 62
     0
 10
69879.956301020182
 20
48131.426482136398
 30
0.0
 11
74443.94769770214
 21
50309.168569893271
 31
0.0
  0
SOLID
  5
2BE4
  8
LAYER3
 62
     0
 10
69865.601474999916
 20
48161.510532412904
 30
0.0
 11
69894.311127040433
 21
48101.342431859892
 31
0.0
 12
69699.451999361161
 22
48045.297526014831
 32
0.0
 13
69699.451999361161
 23
48045.297526014831
 33
0.0
  0
SOLID
  5
2BE5
  8
LAYER3
 62
     0
 10
74429.592871681874
 20
50339.252620169762
 30
0.0
 11
74458.302523722406
 21
50279.084519616757
 31
0.0
 12
74624.451999361161
 22
50395.297526014823
 32
0.0
 13
74624.451999361161
 23
50395.297526014823
 33
0.0
  0
TEXT
  8
0
  40
200
  5
2C76
  62
0
  72
0
  71
0
 10
71718.6
 20
48957.1
 30
0.000000
  1
5456.9337
  0
POINT
  5
2BE7
  8
DEFPOINTS
 62
     0
 10
70924.451999361161
 20
45478.01029197227
 30
0.0
  0
POINT
  5
2BE8
  8
DEFPOINTS
 62
     0
 10
75849.451999361161
 20
47828.010291972263
 30
0.0
  0
POINT
  5
2BE9
  8
DEFPOINTS
 62
     0
 10
74624.451999361161
 20
50395.297526014823
 30
0.0
  0
ENDBLK
  5
275C
  8
0
  0
BLOCK
  8
0
  2
*D4
 70
     1
 10
0.0
 20
0.0
 30
0.0
  3
*D4
  1

  0
LINE
  5
2BD8
  8
LAYER3
 62
     0
 10
74324.153207383715
 20
47329.162992796257
 30
0.0
 11
73437.281172801231
 21
48958.558221018167
 31
0.0
  0
LINE
  5
2BD9
  8
LAYER3
 62
     0
 10
70924.153207383715
 20
45478.559244023199
 30
0.0
 11
70037.281172801231
 21
47107.954472245103
 31
0.0
  0
LINE
  5
2BDA
  8
LAYER3
 62
     0
 10
73262.214100461206
 20
48861.846884132108
 30
0.0
 11
70213.543413051069
 21
47202.470000927482
 31
0.0
  0
SOLID
  5
2BDB
  8
LAYER3
 62
     0
 10
73246.278528330484
 20
48891.12432684793
 30
0.0
 11
73278.149672591913
 21
48832.569441416301
 31
0.0
 12
73437.878756756138
 22
48957.460316916331
 32
0.0
 13
73437.878756756138
 23
48957.460316916331
 33
0.0
  0
SOLID
  5
2BDC
  8
LAYER3
 62
     0
 10
70197.607840920362
 20
47231.747443643297
 30
0.0
 11
70229.478985181777
 21
47173.192558211653
 31
0.0
 12
70037.878756756123
 22
47106.856568143266
 32
0.0
 13
70037.878756756123
 23
47106.856568143266
 33
0.0
  0
TEXT
  8
0
  40
200
  5
2C77
  62
0
  72
0
  71
0
 10
71289.8
 20
47766.5
 30
0.000000
  1
3871.012
  0
POINT
  5
2BDE
  8
DEFPOINTS
 62
     0
 10
74324.451999361161
 20
47328.614040745342
 30
0.0
  0
POINT
  5
2BDF
  8
DEFPOINTS
 62
     0
 10
70924.451999361161
 20
45478.010291972278
 30
0.0
  0
POINT
  5
2BE0
  8
DEFPOINTS
 62
     0
 10
70037.878756756123
 20
47106.856568143266
 30
0.0
  0
ENDBLK
  5
2768
  8
0
  0
BLOCK
  8
0
  2
*D5
 70
     1
 10
0.0
 20
0.0
 30
0.0
  3
*D5
  1

  0
ARC
  5
2BCF
  8
LAYER3
 62
     0
 10
74324.451999361161
 20
47328.614040745342
 30
0.0
 40
3116.390080791024
 50
183.67769214842929
 51
204.881549209215
  0
SOLID
  5
2BD0
  8
LAYER3
 62
     0
 10
71181.163432587724
 20
47127.647420225992
 30
0.0
 11
71247.795768214666
 21
47129.78664750301
 31
0.0
 12
71208.061918570136
 22
47328.614040745328
 32
0.0
 13
71208.061918570136
 23
47328.614040745328
 33
0.0
  0
SOLID
  5
2BD1
  8
LAYER3
 62
     0
 10
71527.100354453854
 20
46032.40045044064
 30
0.0
 11
71467.552928456396
 21
46002.424651843809
 31
0.0
 12
71587.254037245657
 22
45838.770273149763
 32
0.0
 13
71587.254037245657
 23
45838.770273149763
 33
0.0
  0
TEXT
  8
0
  40
200
  5
2C78
  62
0
  72
0
  71
0
 10
71001.9
 20
46230.8
 30
0.000000
  1
29%%d
  0
POINT
  5
2BD3
  8
DEFPOINTS
 62
     0
 10
71250.97878927394
 20
46813.202008940862
 30
0.0
  0
POINT
  5
2BD4
  8
DEFPOINTS
 62
     0
 10
74324.451999361161
 20
47328.614040745342
 30
0.0
  0
POINT
  5
2BD5
  8
DEFPOINTS
 62
     0
 10
74324.451999361161
 20
47328.614040745342
 30
0.0
  0
POINT
  5
2BD6
  8
DEFPOINTS
 62
     0
 10
70946.324022935296
 20
47328.614040745328
 30
0.0
  0
POINT
  5
2BD7
  8
DEFPOINTS
 62
     0
 10
70924.451999361176
 20
45478.010291972278
 30
0.0
  0
ENDBLK
  5
277D
  8
0
  0
ENDSEC
  0
SECTION
  2
ENTITIES
  0
LINE
  5
24B3
  8
LAYER4
 10
80949.451999361161
 20
40328.010291972263
 30
0.0
 11
87378.966106671447
 21
40328.010291972263
 31
0.0
  0
LINE
  5
24B4
  8
LAYER1
 10
56585.166028162232
 20
37328.010291972278
 30
0.0
 11
90549.683990267527
 21
37328.010291972278
 31
0.0
  0
LINE
  5
24B5
  8
LAYER4
 10
82064.451999361161
 20
40328.010291972263
 30
0.0
 11
82064.451999361161
 21
37328.010291972278
 31
0.0
  0
LINE
  5
24B6
  8
LAYER1
 10
77149.451999361161
 20
47828.010291972263
 30
0.0
 11
77149.451999361161
 21
42678.010291972292
 31
0.0
  0
LINE
  5
24B7
  8
LAYER1
 10
74624.451999361161
 20
47328.010291972278
 30
0.0
 11
74624.451999361161
 21
44328.010291972292
 31
0.0
  0
LINE
  5
24B8
  8
LAYER2
 10
77149.451999361161
 20
47828.010291972263
 30
0.0
 11
77149.451999361161
 21
52428.010291972263
 31
0.0
  0
LINE
  5
24B9
  8
LAYER2
 10
74624.451999361161
 20
47328.010291972278
 30
0.0
 11
74624.451999361161
 21
52528.614040745342
 31
0.0
  0
POINT
  5
24BA
  8
LAYER6
 10
74624.451999361161
 20
44328.010291972292
 30
0.0
  0
LINE
  5
24BB
  8
LAYER6
 10
59674.451999361168
 20
37328.010291972278
 30
0.0
 11
59674.451999361168
 21
45478.010291972278
 31
0.0
  0
LINE
  5
24BC
  8
LAYER6
 10
76549.451999361161
 20
45478.010291972278
 30
0.0
 11
70924.451999361176
 21
45478.010291972278
 31
0.0
  0
LINE
  5
24BD
  8
LAYER6
 10
76549.451999361161
 20
43328.010291972292
 30
0.0
 11
59674.451999361168
 21
43328.010291972292
 31
0.0
  0
LINE
  5
24BE
  8
LAYER6
 10
65299.451999361161
 20
37328.010291972278
 30
0.0
 11
65299.451999361161
 21
45478.010291972278
 31
0.0
  0
LINE
  5
24BF
  8
LAYER6
 10
80549.451999361147
 20
41128.01029197227
 30
0.0
 11
81049.451999361161
 21
40128.010291972278
 31
0.0
  0
LINE
  5
24C0
  8
LAYER6
 10
80549.451999361147
 20
43178.010291972292
 30
0.0
 11
80549.451999361147
 21
41128.01029197227
 31
0.0
1001
ACAD
1000
ASC_BOUNDS
1002
{
1070
    19
1005
A39
1002
}
  0
LINE
  5
24C1
  8
LAYER6
 10
81049.451999361161
 20
40128.010291972278
 30
0.0
 11
81049.451999361161
 21
37328.010291972278
 31
0.0
  0
LINE
  5
24C2
  8
LAYER6
 10
80549.451999361147
 20
41128.01029197227
 30
0.0
 11
76549.451999361161
 21
41128.01029197227
 31
0.0
1001
ACAD
1000
ASC_BOUNDS
1002
{
1070
    19
1005
A39
1002
}
  0
LINE
  5
24C3
  8
LAYER6
 10
80549.451999361147
 20
43178.010291972292
 30
0.0
 11
76549.451999361161
 21
43178.010291972292
 31
0.0
  0
LINE
  5
24C4
  8
LAYER6
 10
81049.451999361161
 20
40128.010291972278
 30
0.0
 11
76549.451999361161
 21
40128.010291972278
 31
0.0
  0
LINE
  5
24C6
  8
LAYER6
 10
76549.451999361161
 20
45478.010291972278
 30
0.0
 11
76549.451999361161
 21
37328.010291972278
 31
0.0
  0
LINE
  5
24C7
  8
LAYER1
 10
54411.732462324311
 20
37328.010291972278
 30
0.0
 11
8889.9156258629082
 21
37328.010291972278
 31
0.0
  0
LINE
  5
24C8
  8
LAYER4
 10
15167.43008644753
 20
40328.010291972263
 30
0.0
 11
8889.9156258629082
 21
40328.010291972263
 31
0.0
  0
ARC
  5
24C9
  8
LAYER3
 10
16267.430086447521
 20
45828.010291972263
 30
0.0
 40
5500.0
 50
90.0
 51
270.0
  0
LINE
  5
24CA
  8
LAYER4
 10
8889.9156258629082
 20
25990.742899915629
 30
0.0
 11
8889.9156258629082
 21
4690.0217955043772
 31
0.0
  0
LINE
  5
24CB
  8
LAYER4
 10
41567.430086447523
 20
40328.010291972263
 30
0.0
 11
41567.430086447523
 21
37328.010291972278
 31
0.0
  0
LINE
  5
24CC
  8
LAYER6
 10
32467.43008644753
 20
43328.01029197227
 30
0.0
 11
32467.43008644753
 21
37328.010291972278
 31
0.0
  0
LINE
  5
24CD
  8
LAYER6
 10
29067.430086447519
 20
39828.010291972278
 30
0.0
 11
29067.430086447519
 21
37328.010291972278
 31
0.0
  0
LINE
  5
24CE
  8
LAYER1
 10
26567.430086447519
 20
37328.010291972278
 30
0.0
 11
26567.430086447519
 21
45828.010291972263
 31
0.0
  0
LINE
  5
24CF
  8
LAYER4
 10
15167.43008644753
 20
40328.010291972263
 30
0.0
 11
15167.43008644753
 21
37328.010291972278
 31
0.0
  0
LINE
  5
24D0
  8
LAYER1
 10
16267.430086447521
 20
37328.010291972278
 30
0.0
 11
16267.430086447521
 21
45828.010291972263
 31
0.0
  0
LINE
  5
24D1
  8
LAYER6
 10
28779.62925657201
 20
39768.757179939093
 30
0.0
 11
32467.43008644753
 21
40528.010291972278
 31
0.0
  0
LINE
  5
24D2
  8
LAYER6
 10
28767.43008644753
 20
39664.148203985751
 30
0.0
 11
32467.43008644753
 21
40425.912909868108
 31
0.0
  0
LINE
  5
24D3
  8
LAYER1
 10
35817.43008644753
 20
45828.010291972263
 30
0.0
 11
16267.430086447521
 21
45828.010291972263
 31
0.0
  0
LINE
  5
24D4
  8
LAYER3
 10
16267.430086447521
 20
51328.010291972278
 30
0.0
 11
35817.43008644753
 21
51328.010291972278
 31
0.0
  0
LINE
  5
24D5
  8
LAYER3
 10
16267.430086447521
 20
40328.010291972263
 30
0.0
 11
35817.43008644753
 21
40328.010291972263
 31
0.0
  0
LINE
  5
24D6
  8
LAYER2
 10
35817.43008644753
 20
45828.010291972263
 30
0.0
 11
16267.430086447521
 21
45828.010291972263
 31
0.0
  0
LINE
  5
24D7
  8
LAYER6
 10
28779.62925657201
 20
39768.757179939093
 30
0.0
 11
28767.43008644753
 21
39664.148203985751
 31
0.0
  0
LINE
  5
24D8
  8
LAYER4
 10
47731.908829988861
 20
4690.0217955043772
 30
0.0
 11
47731.908829988861
 21
25990.742899915629
 31
0.0
  0
ARC
  5
24D9
  8
LAYER3
 10
35817.43008644753
 20
45828.010291972249
 30
0.0
 40
5500.0
 50
270.0
 51
90.0
  0
LINE
  5
24DA
  8
LAYER6
 10
37017.43008644753
 20
43178.01029197227
 30
0.0
 11
41908.508209167929
 21
40974.337731186162
 31
0.0
  0
LINE
  5
24DB
  8
LAYER6
 10
37017.43008644753
 20
45478.010291972278
 30
0.0
 11
41910.153282382264
 21
43166.0641664207
 31
0.0
  0
LINE
  5
24DC
  8
LAYER6
 10
41867.43008644753
 20
40883.164336855531
 30
0.0
 11
37017.43008644753
 21
43068.329172020363
 31
0.0
  0
LINE
  5
24DD
  8
LAYER6
 10
41867.43008644753
 20
43075.649961070427
 30
0.0
 11
37017.43008644753
 21
45367.408202828672
 31
0.0
  0
LINE
  5
24DE
  8
LAYER1
 10
35817.43008644753
 20
42637.350951312932
 30
0.0
 11
35817.43008644753
 21
47828.01029197227
 31
0.0
  0
LINE
  5
24DF
  8
LAYER1
 10
35117.430086447523
 20
47328.010291972278
 30
0.0
 11
35117.430086447523
 21
44580.20809417007
 31
0.0
  0
LINE
  5
24E0
  8
LAYER6
 10
32126.351963727109
 20
40974.337731186162
 30
0.0
 11
37017.43008644753
 21
43178.01029197227
 31
0.0
  0
LINE
  5
24E1
  8
LAYER6
 10
32124.706890512782
 20
43166.0641664207
 30
0.0
 11
37017.43008644753
 21
45478.010291972278
 31
0.0
  0
LINE
  5
24E2
  8
LAYER6
 10
32167.43008644753
 20
40883.164336855531
 30
0.0
 11
37017.43008644753
 21
43068.329172020363
 31
0.0
  0
LINE
  5
24E3
  8
LAYER6
 10
37017.43008644753
 20
45367.40820282865
 30
0.0
 11
32167.43008644753
 21
43075.649961070427
 31
0.0
  0
POLYLINE
  5
24E4
  8
LAYER6
 66
     1
 10
0.0
 20
0.0
 30
0.0
 70
     1
  0
VERTEX
  5
2BB1
  8
LAYER6
 10
34734.265922665159
 20
40682.346731248079
 30
0.0
  0
VERTEX
  5
2BB2
  8
LAYER6
 10
36114.817920628229
 20
40682.346731248079
 30
0.0
  0
VERTEX
  5
2BB3
  8
LAYER6
 10
36114.817920628229
 20
41683.205219651049
 30
0.0
  0
VERTEX
  5
2BB4
  8
LAYER6
 10
34734.265922665159
 20
41683.205219651049
 30
0.0
  0
SEQEND
  5
2BB5
  8
LAYER6
  0
POLYLINE
  5
24EA
  8
LAYER6
 66
     1
 10
0.0
 20
0.0
 30
0.0
 70
     1
  0
VERTEX
  5
2BB6
  8
LAYER6
 10
34692.11164472255
 20
40640.205329606892
 30
0.0
  0
VERTEX
  5
2BB7
  8
LAYER6
 10
36167.510768056469
 20
40640.205329606892
 30
0.0
  0
VERTEX
  5
2BB8
  8
LAYER6
 10
36167.510768056469
 20
41725.346621292243
 30
0.0
  0
VERTEX
  5
2BB9
  8
LAYER6
 10
34692.11164472255
 20
41725.346621292243
 30
0.0
  0
SEQEND
  5
2BBA
  8
LAYER6
  0
LINE
  5
24F0
  8
LAYER6
 10
32126.351963727109
 20
40974.337731186162
 30
0.0
 11
32167.43008644753
 21
40883.164336855531
 31
0.0
  0
LINE
  5
24F1
  8
LAYER6
 10
32124.706890512782
 20
43166.0641664207
 30
0.0
 11
32167.43008644753
 21
43075.649961070427
 31
0.0
  0
POLYLINE
  5
24F2
  8
LAYER6
 66
     1
 10
0.0
 20
0.0
 30
0.0
 70
     1
  0
VERTEX
  5
2BBB
  8
LAYER6
 10
37916.912546852982
 20
40682.346731248079
 30
0.0
  0
VERTEX
  5
2BBC
  8
LAYER6
 10
39297.464544816052
 20
40682.346731248079
 30
0.0
  0
VERTEX
  5
2BBD
  8
LAYER6
 10
39297.464544816052
 20
41683.205219651049
 30
0.0
  0
VERTEX
  5
2BBE
  8
LAYER6
 10
37916.912546852982
 20
41683.205219651049
 30
0.0
  0
SEQEND
  5
2BBF
  8
LAYER6
  0
POLYLINE
  5
24F8
  8
LAYER6
 66
     1
 10
0.0
 20
0.0
 30
0.0
 70
     1
  0
VERTEX
  5
2BC0
  8
LAYER6
 10
37874.758268910409
 20
40640.205329606892
 30
0.0
  0
VERTEX
  5
2BC1
  8
LAYER6
 10
39350.157392244313
 20
40640.205329606892
 30
0.0
  0
VERTEX
  5
2BC2
  8
LAYER6
 10
39350.157392244313
 20
41725.346621292243
 30
0.0
  0
VERTEX
  5
2BC3
  8
LAYER6
 10
37874.758268910409
 20
41725.346621292243
 30
0.0
  0
SEQEND
  5
2BC4
  8
LAYER6
  0
POLYLINE
  5
24FE
  8
LAYER6
 66
     1
 10
0.0
 20
0.0
 30
0.0
 70
     1
  0
VERTEX
  5
2BC5
  8
LAYER6
 10
36538.941603521351
 20
43978.115591977199
 30
0.0
  0
VERTEX
  5
2BC6
  8
LAYER6
 10
37480.91075213821
 20
43978.115591977199
 30
0.0
  0
VERTEX
  5
2BC7
  8
LAYER6
 10
37480.91075213821
 20
44723.613766353483
 30
0.0
  0
VERTEX
  5
2BC8
  8
LAYER6
 10
36538.941603521351
 20
44723.613766353483
 30
0.0
  0
SEQEND
  5
2BC9
  8
LAYER6
  0
POLYLINE
  5
2504
  8
LAYER6
 66
     1
 10
0.0
 20
0.0
 30
0.0
 70
     1
  0
VERTEX
  5
2BCA
  8
LAYER6
 10
36486.610038740851
 20
43912.721011161433
 30
0.0
  0
VERTEX
  5
2BCB
  8
LAYER6
 10
37546.325283695987
 20
43912.721011161433
 30
0.0
  0
VERTEX
  5
2BCC
  8
LAYER6
 10
37546.325283695987
 20
44789.00834716922
 30
0.0
  0
VERTEX
  5
2BCD
  8
LAYER6
 10
36486.610038740851
 20
44789.00834716922
 30
0.0
  0
SEQEND
  5
2BCE
  8
LAYER6
  0
LINE
  5
250A
  8
LAYER4
 10
41567.430086447523
 20
40328.010291972263
 30
0.0
 11
47731.908829988861
 21
40328.010291972263
 31
0.0
  0
LINE
  5
250B
  8
LAYER6
 10
41867.43008644753
 20
40883.164336855531
 30
0.0
 11
41908.508209167929
 21
40974.337731186162
 31
0.0
  0
LINE
  5
250C
  8
LAYER6
 10
41867.43008644753
 20
43075.649961070427
 30
0.0
 11
41910.153282382264
 21
43166.0641664207
 31
0.0
  0
LINE
  5
250E
  8
LAYER3
 10
37002.010303562951
 20
9648.6170140937502
 30
0.0
 11
17452.01030356294
 21
5336.7769501449038
 31
0.0
  0
LINE
  5
250F
  8
LAYER3
 10
25386.969160873399
 20
18493.663906233462
 30
0.0
 11
34711.791386599929
 21
20407.259268524431
 31
0.0
  0
LINE
  5
2510
  8
LAYER2
 10
26567.430086447519
 20
13121.295199377249
 30
0.0
 11
35817.43008644753
 21
15019.53590281463
 31
0.0
  0
LINE
  5
2511
  8
LAYER6
 10
29067.430086447519
 20
15519.53590281463
 30
0.0
 11
41567.430086447523
 21
15519.53590281463
 31
0.0
1001
ACAD
1000
ASC_BOUNDS
1002
{
1070
    19
1005
14C
1005
14C
1005
147
1005
147
1005
146
1002
}
  0
LINE
  5
2512
  8
LAYER6
 10
41567.430086447523
 20
11519.53590281461
 30
0.0
 11
29067.430086447519
 21
11019.535902814619
 31
0.0
1001
ACAD
1000
ASC_BOUNDS
1002
{
1070
    19
1005
147
1005
147
1005
146
1002
}
  0
LINE
  5
2513
  8
LAYER6
 10
32467.43008644753
 20
21144.53590281463
 30
0.0
 11
41567.430086447523
 21
21144.53590281463
 31
0.0
1001
ACAD
1000
ASC_BOUNDS
1002
{
1070
    19
1005
ADB
1005
ADB
1005
ADB
1005
ADB
1005
ADB
1005
14C
1002
}
  0
ARC
  5
2516
  8
LAYER3
 10
35817.43008644753
 20
15019.53590281463
 30
0.0
 40
5500.0
 50
282.43771765562269
 51
101.5969591177432
1001
ACAD
1000
ASC_BOUNDS
1002
{
1070
    19
1005
14C
1005
14C
1005
147
1005
147
1002
}
  0
LINE
  5
2517
  8
LAYER6
 10
32467.43008644753
 20
32394.53590281463
 30
0.0
 11
32467.43008644753
 21
11155.53590281461
 31
0.0
1001
ACAD
1000
ASC_BOUNDS
1002
{
1070
    19
1005
ADB
1005
ADB
1005
ADB
1005
ADB
1005
146
1002
}
  0
LINE
  5
2518
  8
LAYER6
 10
37017.43008644753
 20
11337.53590281461
 30
0.0
 11
37017.43008644753
 21
32394.53590281463
 31
0.0
1001
ACAD
1000
ASC_BOUNDS
1002
{
1070
    19
1005
AF7
1005
ADB
1005
ADB
1005
ADB
1005
ADB
1005
ADB
1005
ADB
1005
ADB
1005
ADB
1005
ADB
1005
14C
1005
14C
1005
147
1005
146
1002
}
  0
LINE
  5
2519
  8
LAYER6
 10
41567.430086447523
 20
32394.53590281463
 30
0.0
 11
41567.430086447523
 21
11519.53590281461
 31
0.0
1001
ACAD
1000
ASC_BOUNDS
1002
{
1070
    19
1005
AF7
1005
ADB
1005
ADB
1005
14C
1005
147
1002
}
  0
LINE
  5
251C
  8
LAYER2
 10
35117.430086447523
 20
17569.53590281463
 30
0.0
 11
35117.430086447523
 21
16869.53590281463
 31
0.0
  0
LINE
  5
251D
  8
LAYER2
 10
35467.430086447523
 20
17219.53590281463
 30
0.0
 11
34767.430086447523
 21
17219.53590281463
 31
0.0
  0
POINT
  5
251E
  8
LAYER1
 10
35817.43008644753
 20
15019.53590281463
 30
0.0
  0
POINT
  5
251F
  8
LAYER1
 10
36914.936857816603
 20
9630.1501412645266
 30
0.0
  0
LINE
  5
2520
  8
LAYER2
 10
16267.430086447521
 20
10707.69583886578
 30
0.0
 11
26567.430086447519
 21
13121.295199377249
 31
0.0
  0
ARC
  5
2521
  8
LAYER3
 10
16267.430086447521
 20
10707.69583886578
 30
0.0
 40
5500.0
 50
103.1881685346394
 51
282.43771765562269
  0
LINE
  5
2522
  8
LAYER6
 10
29067.430086447519
 20
15519.53590281463
 30
0.0
 11
29067.430086447519
 21
11019.53590281463
 31
0.0
  0
LINE
  5
2523
  8
LAYER1
 10
15167.43008644753
 20
32394.53590281463
 30
0.0
 11
15167.43008644753
 21
10463.53590281463
 31
0.0
  0
LINE
  5
2524
  8
LAYER3
 10
25386.969160873399
 20
18493.663906233462
 30
0.0
 11
15012.60605927739
 21
16062.639037522191
 31
0.0
  0
POINT
  5
2525
  8
LAYER1
 10
16267.430086447521
 20
10707.69583886578
 30
0.0
  0
LINE
  5
2526
  8
LAYER4
 10
8889.9156258629082
 20
56809.762479949743
 30
0.0
 11
8889.9156258629082
 21
40328.010291972263
 31
0.0
  0
LINE
  5
2527
  8
LAYER4
 10
47731.908829988861
 20
56809.762479949743
 30
0.0
 11
47731.908829988861
 21
40328.010291972263
 31
0.0
  0
LINE
  5
2528
  8
LAYER6
 10
41567.430086447523
 20
40328.010291972263
 30
0.0
 11
41567.430086447508
 21
43217.408202828628
 31
0.0
  0
ARC
  5
2529
  8
LAYER3
 10
77149.451999361161
 20
45828.01029197227
 30
0.0
 40
5500.0
 50
89.63261108650785
 51
269.99999999999972
1001
ACAD
1000
ASC_BOUNDS
1002
{
1070
    19
1005
A39
1002
}
  0
LINE
  5
252A
  8
LAYER2
 10
74924.451999361161
 20
47328.614040745342
 30
0.0
 11
74324.451999361161
 21
47328.614040745342
 31
0.0
  0
LINE
  5
252B
  8
LAYER3
 10
74324.451999361161
 20
47328.614040745342
 30
0.0
 11
70924.451999361161
 21
45478.010291972278
 31
0.0
  0
LINE
  5
252C
  8
LAYER3
 10
74324.451999361161
 20
47328.614040745342
 30
0.0
 11
70946.324022935296
 21
47328.614040745342
 31
0.0
  0
DIMENSION
  5
252D
  8
LAYER3
  2
*D5
 10
70924.451999361161
 20
45478.010291972278
 30
0.0
 11
71401.863431219812
 21
46584.762520690398
 31
0.0
 70
     2
 13
74324.451999361161
 23
47328.614040745342
 33
0.0
 14
70946.324022935296
 24
47328.614040745342
 34
0.0
 15
74324.451999361161
 25
47328.614040745342
 35
0.0
 16
71250.97878927394
 26
46813.202008940862
 36
0.0
1001
ACAD
1000
DSTYLE
1002
{
1070
   287
1070
     3
1070
   271
1070
     0
1070
   287
1070
     3
1070
   271
1070
     0
1070
    41
1040
200.0
1070
   140
1040
200.0
1070
   274
1070
     2
1070
   279
1070
     0
1070
   284
1070
     0
1070
   285
1070
     0
1070
   286
1070
     0
1002
}
  0
LINE
  5
252E
  8
LAYER2
 10
75849.451999361161
 20
47828.010291972263
 30
0.0
 11
78449.451999361161
 21
47828.010291972263
 31
0.0
  0
LINE
  5
252F
  8
LAYER2
 10
77149.451999361161
 20
45828.01029197227
 30
0.0
 11
81361.292063310044
 21
45828.01029197227
 31
0.0
  0
LINE
  5
2530
  8
LAYER3
 10
75849.451999361161
 20
47828.010291972263
 30
0.0
 11
70924.451999361161
 21
45478.010291972278
 31
0.0
  0
DIMENSION
  5
2531
  8
LAYER3
  2
*D4
 10
70037.878756756123
 20
47106.856568143266
 30
0.0
 11
71689.773248386584
 21
48120.539722728186
 31
0.0
 70
     1
 13
74324.451999361161
 23
47328.614040745342
 33
0.0
 14
70924.451999361161
 24
45478.010291972278
 34
0.0
1001
ACAD
1000
DSTYLE
1002
{
1070
   287
1070
     3
1070
   287
1070
     3
1070
    41
1040
200.0
1070
   140
1040
200.0
1070
   274
1070
     2
1070
   279
1070
     0
1070
   284
1070
     0
1070
   285
1070
     0
1070
   286
1070
     0
1002
}
  0
DIMENSION
  5
2532
  8
LAYER3
  2
*D3
 10
74624.451999361161
 20
50395.297526014823
 30
0.0
 11
72118.618368312484
 21
49311.113752787023
 31
0.0
 70
     1
 13
70924.451999361161
 23
45478.010291972278
 33
0.0
 14
75849.451999361161
 24
47828.010291972263
 34
0.0
1001
ACAD
1000
DSTYLE
1002
{
1070
   287
1070
     3
1070
   287
1070
     3
1070
    41
1040
200.0
1070
   140
1040
200.0
1070
   274
1070
     2
1070
   279
1070
     0
1070
   284
1070
     0
1070
   285
1070
     0
1070
   286
1070
     0
1002
}
  0
ARC
  5
2535
  8
LAYER3
 10
75849.451999361161
 20
47828.010291972263
 30
0.0
 40
5496.6053586058297
 50
166.30138255726601
 51
269.98757083654311
  0
ARC
  5
2536
  8
LAYER3
 10
78449.721152348997
 20
47827.446216029588
 30
0.0
 40
5496.6053586058297
 50
269.98757083654311
 51
13.66830413447609
  0
ARC
  5
2537
  8
LAYER3
 10
77151.014270599233
 20
53167.793272977193
 30
0.0
 40
5496.6053586058297
 50
13.66830413447609
 51
166.30138255726601
  0
LINE
  5
2538
  8
LAYER3
 10
70509.198488983908
 20
49129.687253878612
 30
0.0
 11
71810.76076022198
 21
54469.470234883542
 31
0.0
  0
LINE
  5
2539
  8
LAYER3
 10
82491.955707916452
 20
54466.644700740231
 30
0.0
 11
83790.662589666274
 21
49126.297643792619
 31
0.0
  0
LINE
  5
253A
  8
LAYER6
 10
78448.5287747166
 20
42330.840986754883
 30
0.0
 11
75848.259621728706
 21
42331.40506269758
 31
0.0
  0
LINE
  5
253C
  8
LAYER3
 10
17452.01022352821
 20
5336.7769324928768
 30
0.0
 11
17452.010303561139
 21
5336.7769501444982
 31
0.0
  0
ARC
  5
253D
  8
LAYER3
 10
81361.292063310044
 20
45828.01029197227
 30
0.0
 40
5500.0
 50
269.99999999999972
 51
93.836265460661096
  0
LINE
  5
253E
  8
LAYER3
 10
77149.451999361161
 20
40328.01029197227
 30
0.0
 11
81361.292063310044
 21
40328.010291972263
 31
0.0
  0
LINE
  5
253F
  8
LAYER3
 10
77149.451999361161
 20
51328.010291972278
 30
0.0
 11
81764.451999361161
 21
51313.214213975851
 31
0.0
  0
LINE
  5
2540
  8
LAYER2
 10
37117.43008644753
 20
47828.01029197227
 30
0.0
 11
34517.43008644753
 21
47828.01029197227
 31
0.0
  0
LINE
  5
2541
  8
LAYER2
 10
35817.43008644753
 20
47828.01029197227
 30
0.0
 11
35817.43008644753
 21
52428.010291972227
 31
0.0
  0
LINE
  5
2542
  8
LAYER2
 10
35417.430086447523
 20
47328.010291972278
 30
0.0
 11
34817.430086447523
 21
47328.010291972278
 31
0.0
  0
LINE
  5
2543
  8
LAYER2
 10
35117.430086447523
 20
47327.40654319922
 30
0.0
 11
35117.430086447523
 21
52528.010291972263
 31
0.0
  0
ARC
  5
2544
  8
LAYER3
 10
74624.451999361161
 20
52528.614040745342
 30
0.0
 40
7140.0
 50
3.3018656744349881
 51
176.69813432556501
  0
POLYLINE
  5
2545
  8
LAYER3
 66
     1
 10
0.0
 20
0.0
 30
0.0
 70
     8
  0
VERTEX
  5
2546
  8
0
 10
67184.533565837934
 20
47338.099999999999
 30
0.0
 70
    32
  0
VERTEX
  5
2547
  8
0
 10
67185.933565837913
 20
47286.099999999991
 30
0.0
 70
    32
  0
VERTEX
  5
2548
  8
0
 10
67191.933565837928
 20
47234.19999999999
 30
0.0
 70
    32
  0
VERTEX
  5
2549
  8
0
 10
67202.333565837922
 20
47182.400000000001
 30
0.0
 70
    32
  0
VERTEX
  5
254A
  8
0
 10
67217.233565837931
 20
47130.599999999999
 30
0.0
 70
    32
  0
VERTEX
  5
254B
  8
0
 10
67236.733565837931
 20
47079.0
 30
0.0
 70
    32
  0
VERTEX
  5
254C
  8
0
 10
67260.633565837925
 20
47027.499999999993
 30
0.0
 70
    32
  0
VERTEX
  5
254D
  8
0
 10
67288.933565837913
 20
46976.19999999999
 30
0.0
 70
    32
  0
VERTEX
  5
254E
  8
0
 10
67321.733565837931
 20
46925.099999999999
 30
0.0
 70
    32
  0
VERTEX
  5
254F
  8
0
 10
67359.033565837934
 20
46874.199999999997
 30
0.0
 70
    32
  0
VERTEX
  5
2550
  8
0
 10
67400.633565837925
 20
46823.69999999999
 30
0.0
 70
    32
  0
VERTEX
  5
2551
  8
0
 10
67446.633565837925
 20
46773.400000000001
 30
0.0
 70
    32
  0
VERTEX
  5
2552
  8
0
 10
67497.033565837934
 20
46723.499999999993
 30
0.0
 70
    32
  0
VERTEX
  5
2553
  8
0
 10
67551.633565837925
 20
46673.900000000001
 30
0.0
 70
    32
  0
VERTEX
  5
2554
  8
0
 10
67610.633565837925
 20
46624.69999999999
 30
0.0
 70
    32
  0
VERTEX
  5
2555
  8
0
 10
67673.833565837922
 20
46576.0
 30
0.0
 70
    32
  0
VERTEX
  5
2556
  8
0
 10
67741.233565837931
 20
46527.699999999997
 30
0.0
 70
    32
  0
VERTEX
  5
2557
  8
0
 10
67812.833565837922
 20
46479.900000000001
 30
0.0
 70
    32
  0
VERTEX
  5
2558
  8
0
 10
67888.533565837934
 20
46432.599999999991
 30
0.0
 70
    32
  0
VERTEX
  5
2559
  8
0
 10
67968.333565837922
 20
46385.900000000001
 30
0.0
 70
    32
  0
VERTEX
  5
255A
  8
0
 10
68052.133565837925
 20
46339.69999999999
 30
0.0
 70
    32
  0
VERTEX
  5
255B
  8
0
 10
68140.033565837934
 20
46294.099999999999
 30
0.0
 70
    32
  0
VERTEX
  5
255C
  8
0
 10
68231.733565837931
 20
46249.199999999997
 30
0.0
 70
    32
  0
VERTEX
  5
255D
  8
0
 10
68327.333565837922
 20
46204.900000000001
 30
0.0
 70
    32
  0
VERTEX
  5
255E
  8
0
 10
68426.733565837931
 20
46161.300000000003
 30
0.0
 70
    32
  0
VERTEX
  5
255F
  8
0
 10
68529.933565837928
 20
46118.399999999987
 30
0.0
 70
    32
  0
VERTEX
  5
2560
  8
0
 10
68636.833565837922
 20
46076.19999999999
 30
0.0
 70
    32
  0
VERTEX
  5
2561
  8
0
 10
68747.333565837922
 20
46034.800000000003
 30
0.0
 70
    32
  0
VERTEX
  5
2562
  8
0
 10
68861.333565837922
 20
45994.199999999997
 30
0.0
 70
    32
  0
VERTEX
  5
2563
  8
0
 10
68978.933565837928
 20
45954.300000000003
 30
0.0
 70
    32
  0
VERTEX
  5
2564
  8
0
 10
69099.933565837913
 20
45915.400000000001
 30
0.0
 70
    32
  0
VERTEX
  5
2565
  8
0
 10
69224.233565837931
 20
45877.199999999997
 30
0.0
 70
    32
  0
VERTEX
  5
2566
  8
0
 10
69351.833565837922
 20
45840.0
 30
0.0
 70
    32
  0
VERTEX
  5
2567
  8
0
 10
69482.533565837934
 20
45803.599999999991
 30
0.0
 70
    32
  0
VERTEX
  5
2568
  8
0
 10
69616.433565837928
 20
45768.19999999999
 30
0.0
 70
    32
  0
VERTEX
  5
2569
  8
0
 10
69753.433565837928
 20
45733.69999999999
 30
0.0
 70
    32
  0
VERTEX
  5
256A
  8
0
 10
69893.333565837922
 20
45700.19999999999
 30
0.0
 70
    32
  0
VERTEX
  5
256B
  8
0
 10
70036.033565837934
 20
45667.69999999999
 30
0.0
 70
    32
  0
VERTEX
  5
256C
  8
0
 10
70181.533565837934
 20
45636.099999999991
 30
0.0
 70
    32
  0
VERTEX
  5
256D
  8
0
 10
70329.833565837922
 20
45605.599999999991
 30
0.0
 70
    32
  0
VERTEX
  5
256E
  8
0
 10
70480.633565837925
 20
45576.199999999997
 30
0.0
 70
    32
  0
VERTEX
  5
256F
  8
0
 10
70633.933565837928
 20
45547.800000000003
 30
0.0
 70
    32
  0
VERTEX
  5
2570
  8
0
 10
70789.733565837931
 20
45520.5
 30
0.0
 70
    32
  0
VERTEX
  5
2571
  8
0
 10
70947.733565837931
 20
45494.300000000003
 30
0.0
 70
    32
  0
VERTEX
  5
2572
  8
0
 10
71108.033565837934
 20
45469.199999999997
 30
0.0
 70
    32
  0
VERTEX
  5
2573
  8
0
 10
71270.533565837934
 20
45445.199999999997
 30
0.0
 70
    32
  0
VERTEX
  5
2574
  8
0
 10
71434.933565837928
 20
45422.300000000003
 30
0.0
 70
    32
  0
VERTEX
  5
2575
  8
0
 10
71601.333565837922
 20
45400.699999999997
 30
0.0
 70
    32
  0
VERTEX
  5
2576
  8
0
 10
71769.633565837925
 20
45380.099999999991
 30
0.0
 70
    32
  0
VERTEX
  5
2577
  8
0
 10
71939.533565837934
 20
45360.800000000003
 30
0.0
 70
    32
  0
VERTEX
  5
2578
  8
0
 10
72111.133565837925
 20
45342.699999999997
 30
0.0
 70
    32
  0
VERTEX
  5
2579
  8
0
 10
72284.233565837916
 20
45325.69999999999
 30
0.0
 70
    32
  0
VERTEX
  5
257A
  8
0
 10
72458.733565837931
 20
45310.0
 30
0.0
 70
    32
  0
VERTEX
  5
257B
  8
0
 10
72634.633565837925
 20
45295.5
 30
0.0
 70
    32
  0
VERTEX
  5
257C
  8
0
 10
72811.633565837925
 20
45282.199999999997
 30
0.0
 70
    32
  0
VERTEX
  5
257D
  8
0
 10
72989.733565837931
 20
45270.199999999997
 30
0.0
 70
    32
  0
VERTEX
  5
257E
  8
0
 10
73168.933565837928
 20
45259.400000000001
 30
0.0
 70
    32
  0
VERTEX
  5
257F
  8
0
 10
73348.933565837913
 20
45249.900000000001
 30
0.0
 70
    32
  0
VERTEX
  5
2580
  8
0
 10
73529.733565837931
 20
45241.599999999999
 30
0.0
 70
    32
  0
VERTEX
  5
2581
  8
0
 10
73711.133565837925
 20
45234.599999999999
 30
0.0
 70
    32
  0
VERTEX
  5
2582
  8
0
 10
73893.133565837925
 20
45228.800000000003
 30
0.0
 70
    32
  0
VERTEX
  5
2583
  8
0
 10
74075.533565837934
 20
45224.400000000001
 30
0.0
 70
    32
  0
VERTEX
  5
2584
  8
0
 10
74258.333565837922
 20
45221.199999999997
 30
0.0
 70
    32
  0
VERTEX
  5
2585
  8
0
 10
74441.333565837922
 20
45219.300000000003
 30
0.0
 70
    32
  0
VERTEX
  5
2586
  8
0
 10
74624.433565837928
 20
45218.599999999999
 30
0.0
 70
    32
  0
VERTEX
  5
2587
  8
0
 10
74807.533565837934
 20
45219.300000000003
 30
0.0
 70
    32
  0
VERTEX
  5
2588
  8
0
 10
74990.533565837934
 20
45221.199999999997
 30
0.0
 70
    32
  0
VERTEX
  5
2589
  8
0
 10
75173.333565837922
 20
45224.400000000001
 30
0.0
 70
    32
  0
VERTEX
  5
258A
  8
0
 10
75355.733565837931
 20
45228.800000000003
 30
0.0
 70
    32
  0
VERTEX
  5
258B
  8
0
 10
75537.733565837931
 20
45234.599999999999
 30
0.0
 70
    32
  0
VERTEX
  5
258C
  8
0
 10
75719.233565837931
 20
45241.599999999999
 30
0.0
 70
    32
  0
VERTEX
  5
258D
  8
0
 10
75900.033565837934
 20
45249.900000000001
 30
0.0
 70
    32
  0
VERTEX
  5
258E
  8
0
 10
76080.033565837934
 20
45259.400000000001
 30
0.0
 70
    32
  0
VERTEX
  5
258F
  8
0
 10
76259.133565837925
 20
45270.199999999997
 30
0.0
 70
    32
  0
VERTEX
  5
2590
  8
0
 10
76437.233565837931
 20
45282.199999999997
 30
0.0
 70
    32
  0
VERTEX
  5
2591
  8
0
 10
76614.333565837922
 20
45295.5
 30
0.0
 70
    32
  0
VERTEX
  5
2592
  8
0
 10
76790.133565837925
 20
45310.0
 30
0.0
 70
    32
  0
VERTEX
  5
2593
  8
0
 10
76964.633565837925
 20
45325.69999999999
 30
0.0
 70
    32
  0
VERTEX
  5
2594
  8
0
 10
77137.733565837931
 20
45342.699999999997
 30
0.0
 70
    32
  0
VERTEX
  5
2595
  8
0
 10
77309.333565837922
 20
45360.800000000003
 30
0.0
 70
    32
  0
VERTEX
  5
2596
  8
0
 10
77479.333565837922
 20
45380.099999999991
 30
0.0
 70
    32
  0
VERTEX
  5
2597
  8
0
 10
77647.533565837934
 20
45400.699999999997
 30
0.0
 70
    32
  0
VERTEX
  5
2598
  8
0
 10
77813.933565837928
 20
45422.300000000003
 30
0.0
 70
    32
  0
VERTEX
  5
2599
  8
0
 10
77978.433565837928
 20
45445.199999999997
 30
0.0
 70
    32
  0
VERTEX
  5
259A
  8
0
 10
78140.833565837922
 20
45469.199999999997
 30
0.0
 70
    32
  0
VERTEX
  5
259B
  8
0
 10
78301.133565837925
 20
45494.300000000003
 30
0.0
 70
    32
  0
VERTEX
  5
259C
  8
0
 10
78459.233565837931
 20
45520.5
 30
0.0
 70
    32
  0
VERTEX
  5
259D
  8
0
 10
78614.933565837928
 20
45547.800000000003
 30
0.0
 70
    32
  0
VERTEX
  5
259E
  8
0
 10
78768.333565837922
 20
45576.199999999997
 30
0.0
 70
    32
  0
VERTEX
  5
259F
  8
0
 10
78919.133565837925
 20
45605.599999999991
 30
0.0
 70
    32
  0
VERTEX
  5
25A0
  8
0
 10
79067.333565837922
 20
45636.099999999991
 30
0.0
 70
    32
  0
VERTEX
  5
25A1
  8
0
 10
79212.833565837922
 20
45667.69999999999
 30
0.0
 70
    32
  0
VERTEX
  5
25A2
  8
0
 10
79355.633565837925
 20
45700.19999999999
 30
0.0
 70
    32
  0
VERTEX
  5
25A3
  8
0
 10
79495.533565837934
 20
45733.69999999999
 30
0.0
 70
    32
  0
VERTEX
  5
25A4
  8
0
 10
79632.433565837928
 20
45768.19999999999
 30
0.0
 70
    32
  0
VERTEX
  5
25A5
  8
0
 10
79766.333565837922
 20
45803.599999999991
 30
0.0
 70
    32
  0
VERTEX
  5
25A6
  8
0
 10
79897.133565837925
 20
45840.0
 30
0.0
 70
    32
  0
VERTEX
  5
25A7
  8
0
 10
80024.733565837931
 20
45877.199999999997
 30
0.0
 70
    32
  0
VERTEX
  5
25A8
  8
0
 10
80149.033565837934
 20
45915.400000000001
 30
0.0
 70
    32
  0
VERTEX
  5
25A9
  8
0
 10
80270.033565837934
 20
45954.300000000003
 30
0.0
 70
    32
  0
VERTEX
  5
25AA
  8
0
 10
80387.533565837934
 20
45994.199999999997
 30
0.0
 70
    32
  0
VERTEX
  5
25AB
  8
0
 10
80501.633565837925
 20
46034.800000000003
 30
0.0
 70
    32
  0
VERTEX
  5
25AC
  8
0
 10
80612.133565837925
 20
46076.19999999999
 30
0.0
 70
    32
  0
VERTEX
  5
25AD
  8
0
 10
80718.933565837913
 20
46118.399999999987
 30
0.0
 70
    32
  0
VERTEX
  5
25AE
  8
0
 10
80822.133565837925
 20
46161.300000000003
 30
0.0
 70
    32
  0
VERTEX
  5
25AF
  8
0
 10
80921.533565837934
 20
46204.900000000001
 30
0.0
 70
    32
  0
VERTEX
  5
25B0
  8
0
 10
81017.13356583791
 20
46249.199999999997
 30
0.0
 70
    32
  0
VERTEX
  5
25B1
  8
0
 10
81108.933565837913
 20
46294.099999999999
 30
0.0
 70
    32
  0
VERTEX
  5
25B2
  8
0
 10
81196.733565837945
 20
46339.69999999999
 30
0.0
 70
    32
  0
VERTEX
  5
25B3
  8
0
 10
81280.533565837934
 20
46385.900000000001
 30
0.0
 70
    32
  0
VERTEX
  5
25B4
  8
0
 10
81360.333565837936
 20
46432.599999999991
 30
0.0
 70
    32
  0
VERTEX
  5
25B5
  8
0
 10
81436.033565837934
 20
46479.900000000001
 30
0.0
 70
    32
  0
VERTEX
  5
25B6
  8
0
 10
81507.633565837925
 20
46527.699999999997
 30
0.0
 70
    32
  0
VERTEX
  5
25B7
  8
0
 10
81575.033565837934
 20
46576.0
 30
0.0
 70
    32
  0
VERTEX
  5
25B8
  8
0
 10
81638.233565837945
 20
46624.69999999999
 30
0.0
 70
    32
  0
VERTEX
  5
25B9
  8
0
 10
81697.233565837931
 20
46673.900000000001
 30
0.0
 70
    32
  0
VERTEX
  5
25BA
  8
0
 10
81751.933565837928
 20
46723.499999999993
 30
0.0
 70
    32
  0
VERTEX
  5
25BB
  8
0
 10
81802.233565837931
 20
46773.400000000001
 30
0.0
 70
    32
  0
VERTEX
  5
25BC
  8
0
 10
81848.233565837931
 20
46823.69999999999
 30
0.0
 70
    32
  0
VERTEX
  5
25BD
  8
0
 10
81889.933565837928
 20
46874.199999999997
 30
0.0
 70
    32
  0
VERTEX
  5
25BE
  8
0
 10
81927.133565837925
 20
46925.099999999999
 30
0.0
 70
    32
  0
VERTEX
  5
25BF
  8
0
 10
81959.933565837928
 20
46976.19999999999
 30
0.0
 70
    32
  0
VERTEX
  5
25C0
  8
0
 10
81988.333565837922
 20
47027.499999999993
 30
0.0
 70
    32
  0
VERTEX
  5
25C1
  8
0
 10
82012.233565837945
 20
47079.0
 30
0.0
 70
    32
  0
VERTEX
  5
25C2
  8
0
 10
82031.633565837925
 20
47130.599999999999
 30
0.0
 70
    32
  0
VERTEX
  5
25C3
  8
0
 10
82046.533565837934
 20
47182.400000000001
 30
0.0
 70
    32
  0
VERTEX
  5
25C4
  8
0
 10
82057.033565837934
 20
47234.19999999999
 30
0.0
 70
    32
  0
VERTEX
  5
25C5
  8
0
 10
82062.933565837913
 20
47286.099999999991
 30
0.0
 70
    32
  0
VERTEX
  5
25C6
  8
0
 10
82064.333565837922
 20
47338.099999999999
 30
0.0
 70
    32
  0
SEQEND
  5
25C7
  8
0
  0
LINE
  5
25C8
  8
LAYER3
 10
67496.30481579731
 20
52939.853301335563
 30
0.0
 11
67185.381495754045
 21
47361.965994117541
 31
0.0
  0
LINE
  5
25C9
  8
LAYER3
 10
81752.599182924998
 20
52939.853301335563
 30
0.0
 11
82063.522502968248
 21
47361.965994117541
 31
0.0
  0
POLYLINE
  5
25CA
  8
LAYER3
 66
     1
 10
0.0
 20
0.0
 30
0.0
 70
     8
  0
VERTEX
  5
25CB
  8
0
 10
27677.499999999989
 20
47336.900000000001
 30
0.0
 70
    32
  0
VERTEX
  5
25CC
  8
0
 10
27678.900000000001
 20
47284.900000000001
 30
0.0
 70
    32
  0
VERTEX
  5
25CD
  8
0
 10
27684.900000000001
 20
47233.0
 30
0.0
 70
    32
  0
VERTEX
  5
25CE
  8
0
 10
27695.299999999999
 20
47181.19999999999
 30
0.0
 70
    32
  0
VERTEX
  5
25CF
  8
0
 10
27710.299999999999
 20
47129.400000000001
 30
0.0
 70
    32
  0
VERTEX
  5
25D0
  8
0
 10
27729.700000000001
 20
47077.800000000003
 30
0.0
 70
    32
  0
VERTEX
  5
25D1
  8
0
 10
27753.599999999999
 20
47026.300000000003
 30
0.0
 70
    32
  0
VERTEX
  5
25D2
  8
0
 10
27781.900000000001
 20
46975.0
 30
0.0
 70
    32
  0
VERTEX
  5
25D3
  8
0
 10
27814.700000000001
 20
46923.900000000001
 30
0.0
 70
    32
  0
VERTEX
  5
25D4
  8
0
 10
27852.0
 20
46873.0
 30
0.0
 70
    32
  0
VERTEX
  5
25D5
  8
0
 10
27893.599999999991
 20
46822.499999999993
 30
0.0
 70
    32
  0
VERTEX
  5
25D6
  8
0
 10
27939.599999999991
 20
46772.199999999997
 30
0.0
 70
    32
  0
VERTEX
  5
25D7
  8
0
 10
27990.0
 20
46722.300000000003
 30
0.0
 70
    32
  0
VERTEX
  5
25D8
  8
0
 10
28044.599999999999
 20
46672.699999999997
 30
0.0
 70
    32
  0
VERTEX
  5
25D9
  8
0
 10
28103.599999999999
 20
46623.499999999993
 30
0.0
 70
    32
  0
VERTEX
  5
25DA
  8
0
 10
28166.799999999988
 20
46574.800000000003
 30
0.0
 70
    32
  0
VERTEX
  5
25DB
  8
0
 10
28234.200000000001
 20
46526.5
 30
0.0
 70
    32
  0
VERTEX
  5
25DC
  8
0
 10
28305.799999999988
 20
46478.699999999997
 30
0.0
 70
    32
  0
VERTEX
  5
25DD
  8
0
 10
28381.5
 20
46431.400000000001
 30
0.0
 70
    32
  0
VERTEX
  5
25DE
  8
0
 10
28461.299999999999
 20
46384.69999999999
 30
0.0
 70
    32
  0
VERTEX
  5
25DF
  8
0
 10
28545.200000000001
 20
46338.499999999993
 30
0.0
 70
    32
  0
VERTEX
  5
25E0
  8
0
 10
28633.0
 20
46292.900000000001
 30
0.0
 70
    32
  0
VERTEX
  5
25E1
  8
0
 10
28724.700000000001
 20
46248.0
 30
0.0
 70
    32
  0
VERTEX
  5
25E2
  8
0
 10
28820.299999999988
 20
46203.699999999997
 30
0.0
 70
    32
  0
VERTEX
  5
25E3
  8
0
 10
28919.700000000001
 20
46160.099999999999
 30
0.0
 70
    32
  0
VERTEX
  5
25E4
  8
0
 10
29022.900000000001
 20
46117.199999999997
 30
0.0
 70
    32
  0
VERTEX
  5
25E5
  8
0
 10
29129.799999999999
 20
46075.0
 30
0.0
 70
    32
  0
VERTEX
  5
25E6
  8
0
 10
29240.299999999999
 20
46033.599999999999
 30
0.0
 70
    32
  0
VERTEX
  5
25E7
  8
0
 10
29354.299999999999
 20
45993.0
 30
0.0
 70
    32
  0
VERTEX
  5
25E8
  8
0
 10
29471.900000000001
 20
45953.099999999999
 30
0.0
 70
    32
  0
VERTEX
  5
25E9
  8
0
 10
29592.900000000001
 20
45914.099999999991
 30
0.0
 70
    32
  0
VERTEX
  5
25EA
  8
0
 10
29717.200000000001
 20
45876.0
 30
0.0
 70
    32
  0
VERTEX
  5
25EB
  8
0
 10
29844.799999999988
 20
45838.800000000003
 30
0.0
 70
    32
  0
VERTEX
  5
25EC
  8
0
 10
29975.599999999999
 20
45802.400000000001
 30
0.0
 70
    32
  0
VERTEX
  5
25ED
  8
0
 10
30109.5
 20
45767.0
 30
0.0
 70
    32
  0
VERTEX
  5
25EE
  8
0
 10
30246.400000000001
 20
45732.499999999993
 30
0.0
 70
    32
  0
VERTEX
  5
25EF
  8
0
 10
30386.299999999988
 20
45699.0
 30
0.0
 70
    32
  0
VERTEX
  5
25F0
  8
0
 10
30529.0
 20
45666.5
 30
0.0
 70
    32
  0
VERTEX
  5
25F1
  8
0
 10
30674.599999999999
 20
45634.900000000001
 30
0.0
 70
    32
  0
VERTEX
  5
25F2
  8
0
 10
30822.799999999988
 20
45604.400000000001
 30
0.0
 70
    32
  0
VERTEX
  5
25F3
  8
0
 10
30973.599999999999
 20
45575.0
 30
0.0
 70
    32
  0
VERTEX
  5
25F4
  8
0
 10
31126.900000000001
 20
45546.599999999999
 30
0.0
 70
    32
  0
VERTEX
  5
25F5
  8
0
 10
31282.700000000001
 20
45519.300000000003
 30
0.0
 70
    32
  0
VERTEX
  5
25F6
  8
0
 10
31440.700000000001
 20
45493.099999999999
 30
0.0
 70
    32
  0
VERTEX
  5
25F7
  8
0
 10
31601.0
 20
45467.900000000001
 30
0.0
 70
    32
  0
VERTEX
  5
25F8
  8
0
 10
31763.5
 20
45444.0
 30
0.0
 70
    32
  0
VERTEX
  5
25F9
  8
0
 10
31927.900000000001
 20
45421.099999999999
 30
0.0
 70
    32
  0
VERTEX
  5
25FA
  8
0
 10
32094.299999999999
 20
45399.400000000001
 30
0.0
 70
    32
  0
VERTEX
  5
25FB
  8
0
 10
32262.599999999991
 20
45378.899999999987
 30
0.0
 70
    32
  0
VERTEX
  5
25FC
  8
0
 10
32432.5
 20
45359.599999999999
 30
0.0
 70
    32
  0
VERTEX
  5
25FD
  8
0
 10
32604.099999999991
 20
45341.400000000001
 30
0.0
 70
    32
  0
VERTEX
  5
25FE
  8
0
 10
32777.19999999999
 20
45324.499999999993
 30
0.0
 70
    32
  0
VERTEX
  5
25FF
  8
0
 10
32951.69999999999
 20
45308.800000000003
 30
0.0
 70
    32
  0
VERTEX
  5
2600
  8
0
 10
33127.599999999991
 20
45294.300000000003
 30
0.0
 70
    32
  0
VERTEX
  5
2601
  8
0
 10
33304.599999999991
 20
45281.0
 30
0.0
 70
    32
  0
VERTEX
  5
2602
  8
0
 10
33482.69999999999
 20
45269.0
 30
0.0
 70
    32
  0
VERTEX
  5
2603
  8
0
 10
33661.900000000001
 20
45258.19999999999
 30
0.0
 70
    32
  0
VERTEX
  5
2604
  8
0
 10
33841.900000000001
 20
45248.599999999999
 30
0.0
 70
    32
  0
VERTEX
  5
2605
  8
0
 10
34022.69999999999
 20
45240.400000000001
 30
0.0
 70
    32
  0
VERTEX
  5
2606
  8
0
 10
34204.099999999991
 20
45233.400000000001
 30
0.0
 70
    32
  0
VERTEX
  5
2607
  8
0
 10
34386.099999999999
 20
45227.599999999991
 30
0.0
 70
    32
  0
VERTEX
  5
2608
  8
0
 10
34568.599999999991
 20
45223.19999999999
 30
0.0
 70
    32
  0
VERTEX
  5
2609
  8
0
 10
34751.300000000003
 20
45220.0
 30
0.0
 70
    32
  0
VERTEX
  5
260A
  8
0
 10
34934.300000000003
 20
45218.0
 30
0.0
 70
    32
  0
VERTEX
  5
260B
  8
0
 10
35117.400000000001
 20
45217.400000000001
 30
0.0
 70
    32
  0
VERTEX
  5
260C
  8
0
 10
35300.5
 20
45218.0
 30
0.0
 70
    32
  0
VERTEX
  5
260D
  8
0
 10
35483.5
 20
45220.0
 30
0.0
 70
    32
  0
VERTEX
  5
260E
  8
0
 10
35666.300000000003
 20
45223.19999999999
 30
0.0
 70
    32
  0
VERTEX
  5
260F
  8
0
 10
35848.800000000003
 20
45227.599999999991
 30
0.0
 70
    32
  0
VERTEX
  5
2610
  8
0
 10
36030.800000000003
 20
45233.400000000001
 30
0.0
 70
    32
  0
VERTEX
  5
2611
  8
0
 10
36212.19999999999
 20
45240.400000000001
 30
0.0
 70
    32
  0
VERTEX
  5
2612
  8
0
 10
36393.0
 20
45248.599999999999
 30
0.0
 70
    32
  0
VERTEX
  5
2613
  8
0
 10
36573.0
 20
45258.19999999999
 30
0.0
 70
    32
  0
VERTEX
  5
2614
  8
0
 10
36752.099999999991
 20
45269.0
 30
0.0
 70
    32
  0
VERTEX
  5
2615
  8
0
 10
36930.300000000003
 20
45281.0
 30
0.0
 70
    32
  0
VERTEX
  5
2616
  8
0
 10
37107.300000000003
 20
45294.300000000003
 30
0.0
 70
    32
  0
VERTEX
  5
2617
  8
0
 10
37283.099999999999
 20
45308.800000000003
 30
0.0
 70
    32
  0
VERTEX
  5
2618
  8
0
 10
37457.69999999999
 20
45324.499999999993
 30
0.0
 70
    32
  0
VERTEX
  5
2619
  8
0
 10
37630.800000000003
 20
45341.400000000001
 30
0.0
 70
    32
  0
VERTEX
  5
261A
  8
0
 10
37802.300000000003
 20
45359.599999999999
 30
0.0
 70
    32
  0
VERTEX
  5
261B
  8
0
 10
37972.300000000003
 20
45378.899999999987
 30
0.0
 70
    32
  0
VERTEX
  5
261C
  8
0
 10
38140.5
 20
45399.400000000001
 30
0.0
 70
    32
  0
VERTEX
  5
261D
  8
0
 10
38306.900000000001
 20
45421.099999999999
 30
0.0
 70
    32
  0
VERTEX
  5
261E
  8
0
 10
38471.400000000001
 20
45444.0
 30
0.0
 70
    32
  0
VERTEX
  5
261F
  8
0
 10
38633.800000000003
 20
45467.900000000001
 30
0.0
 70
    32
  0
VERTEX
  5
2620
  8
0
 10
38794.099999999999
 20
45493.099999999999
 30
0.0
 70
    32
  0
VERTEX
  5
2621
  8
0
 10
38952.19999999999
 20
45519.300000000003
 30
0.0
 70
    32
  0
VERTEX
  5
2622
  8
0
 10
39107.900000000001
 20
45546.599999999999
 30
0.0
 70
    32
  0
VERTEX
  5
2623
  8
0
 10
39261.300000000003
 20
45575.0
 30
0.0
 70
    32
  0
VERTEX
  5
2624
  8
0
 10
39412.099999999991
 20
45604.400000000001
 30
0.0
 70
    32
  0
VERTEX
  5
2625
  8
0
 10
39560.300000000003
 20
45634.900000000001
 30
0.0
 70
    32
  0
VERTEX
  5
2626
  8
0
 10
39705.800000000003
 20
45666.5
 30
0.0
 70
    32
  0
VERTEX
  5
2627
  8
0
 10
39848.599999999991
 20
45699.0
 30
0.0
 70
    32
  0
VERTEX
  5
2628
  8
0
 10
39988.5
 20
45732.499999999993
 30
0.0
 70
    32
  0
VERTEX
  5
2629
  8
0
 10
40125.400000000001
 20
45767.0
 30
0.0
 70
    32
  0
VERTEX
  5
262A
  8
0
 10
40259.300000000003
 20
45802.400000000001
 30
0.0
 70
    32
  0
VERTEX
  5
262B
  8
0
 10
40390.099999999999
 20
45838.800000000003
 30
0.0
 70
    32
  0
VERTEX
  5
262C
  8
0
 10
40517.699999999997
 20
45876.0
 30
0.0
 70
    32
  0
VERTEX
  5
262D
  8
0
 10
40642.0
 20
45914.099999999991
 30
0.0
 70
    32
  0
VERTEX
  5
262E
  8
0
 10
40763.0
 20
45953.099999999999
 30
0.0
 70
    32
  0
VERTEX
  5
262F
  8
0
 10
40880.499999999993
 20
45993.0
 30
0.0
 70
    32
  0
VERTEX
  5
2630
  8
0
 10
40994.599999999991
 20
46033.599999999999
 30
0.0
 70
    32
  0
VERTEX
  5
2631
  8
0
 10
41105.099999999991
 20
46075.0
 30
0.0
 70
    32
  0
VERTEX
  5
2632
  8
0
 10
41211.900000000001
 20
46117.199999999997
 30
0.0
 70
    32
  0
VERTEX
  5
2633
  8
0
 10
41315.099999999999
 20
46160.099999999999
 30
0.0
 70
    32
  0
VERTEX
  5
2634
  8
0
 10
41414.499999999993
 20
46203.699999999997
 30
0.0
 70
    32
  0
VERTEX
  5
2635
  8
0
 10
41510.19999999999
 20
46248.0
 30
0.0
 70
    32
  0
VERTEX
  5
2636
  8
0
 10
41601.900000000001
 20
46292.900000000001
 30
0.0
 70
    32
  0
VERTEX
  5
2637
  8
0
 10
41689.69999999999
 20
46338.499999999993
 30
0.0
 70
    32
  0
VERTEX
  5
2638
  8
0
 10
41773.5
 20
46384.69999999999
 30
0.0
 70
    32
  0
VERTEX
  5
2639
  8
0
 10
41853.300000000003
 20
46431.400000000001
 30
0.0
 70
    32
  0
VERTEX
  5
263A
  8
0
 10
41929.0
 20
46478.699999999997
 30
0.0
 70
    32
  0
VERTEX
  5
263B
  8
0
 10
42000.599999999991
 20
46526.5
 30
0.0
 70
    32
  0
VERTEX
  5
263C
  8
0
 10
42068.0
 20
46574.800000000003
 30
0.0
 70
    32
  0
VERTEX
  5
263D
  8
0
 10
42131.300000000003
 20
46623.499999999993
 30
0.0
 70
    32
  0
VERTEX
  5
263E
  8
0
 10
42190.19999999999
 20
46672.699999999997
 30
0.0
 70
    32
  0
VERTEX
  5
263F
  8
0
 10
42244.900000000001
 20
46722.300000000003
 30
0.0
 70
    32
  0
VERTEX
  5
2640
  8
0
 10
42295.19999999999
 20
46772.199999999997
 30
0.0
 70
    32
  0
VERTEX
  5
2641
  8
0
 10
42341.19999999999
 20
46822.499999999993
 30
0.0
 70
    32
  0
VERTEX
  5
2642
  8
0
 10
42382.900000000001
 20
46873.0
 30
0.0
 70
    32
  0
VERTEX
  5
2643
  8
0
 10
42420.099999999991
 20
46923.900000000001
 30
0.0
 70
    32
  0
VERTEX
  5
2644
  8
0
 10
42452.900000000001
 20
46975.0
 30
0.0
 70
    32
  0
VERTEX
  5
2645
  8
0
 10
42481.300000000003
 20
47026.300000000003
 30
0.0
 70
    32
  0
VERTEX
  5
2646
  8
0
 10
42505.19999999999
 20
47077.800000000003
 30
0.0
 70
    32
  0
VERTEX
  5
2647
  8
0
 10
42524.599999999999
 20
47129.400000000001
 30
0.0
 70
    32
  0
VERTEX
  5
2648
  8
0
 10
42539.5
 20
47181.19999999999
 30
0.0
 70
    32
  0
VERTEX
  5
2649
  8
0
 10
42550.0
 20
47233.0
 30
0.0
 70
    32
  0
VERTEX
  5
264A
  8
0
 10
42555.900000000001
 20
47284.900000000001
 30
0.0
 70
    32
  0
VERTEX
  5
264B
  8
0
 10
42557.400000000001
 20
47336.900000000001
 30
0.0
 70
    32
  0
SEQEND
  5
264C
  8
0
  0
LINE
  5
264D
  8
LAYER3
 10
27989.282902883671
 20
52938.645803789441
 30
0.0
 11
27678.359582840421
 21
47360.75849657142
 31
0.0
  0
ARC
  5
264E
  8
LAYER3
 10
35117.430086447523
 20
52527.406543199213
 30
0.0
 40
7140.0
 50
3.3018656744349881
 51
176.69813432556501
  0
LINE
  5
264F
  8
LAYER3
 10
42245.577270011359
 20
52938.645803789441
 30
0.0
 11
42556.500590054617
 21
47360.75849657142
 31
0.0
  0
ARC
  5
2650
  8
LAYER3
 10
35818.992357685602
 20
53167.793272977193
 30
0.0
 40
5496.6053586058297
 50
13.66830413447609
 51
166.30138255726601
  0
LINE
  5
2651
  8
LAYER3
 10
41159.933795002842
 20
54466.644700740253
 30
0.0
 11
42458.640676752613
 21
49126.297643792619
 31
0.0
  0
ARC
  5
2652
  8
LAYER3
 10
37117.69923943538
 20
47827.446216029588
 30
0.0
 40
5496.6053586058297
 50
269.98757083654311
 51
13.66830413447609
  0
LINE
  5
2653
  8
LAYER6
 10
37116.506861802969
 20
42330.840986754883
 30
0.0
 11
34516.23770881509
 21
42331.405062697602
 31
0.0
  0
ARC
  5
2654
  8
LAYER3
 10
34517.43008644753
 20
47828.01029197227
 30
0.0
 40
5496.6053586058297
 50
166.30138255726601
 51
269.98757083654311
  0
LINE
  5
2655
  8
LAYER3
 10
29177.176576070269
 20
49129.687253878627
 30
0.0
 11
30478.738847308341
 21
54469.470234883542
 31
0.0
  0
CIRCLE
  5
2656
  8
LAYER2
 10
35817.43008644753
 20
15019.53590281463
 30
0.0
 40
1300.0
  0
CIRCLE
  5
2657
  8
LAYER2
 10
35117.430086447523
 20
17219.53590281463
 30
0.0
 40
350.0
  0
CIRCLE
  5
2658
  8
LAYER3
 10
35817.43008644753
 20
15019.53590281463
 30
0.0
 40
6796.6053586058424
1001
ACAD
1000
ASC_BOUNDS
1002
{
1070
    19
1005
ADB
1005
ADB
1005
ADB
1005
ADB
1002
}
  0
CIRCLE
  5
2659
  8
LAYER3
 10
35117.430086447523
 20
17219.53590281463
 30
0.0
 40
7439.0705036070831
1001
ACAD
1000
ASC_BOUNDS
1002
{
1070
    19
1005
ADB
1005
ADB
1005
ADB
1005
ADB
1002
}
  0
LINE
  5
265A
  8
LAYER4
 10
47731.908829988861
 20
4690.0217955043772
 30
0.0
 11
8889.9156258629082
 21
4690.0217955043772
 31
0.0
  0
LINE
  5
265B
  8
LAYER4
 10
87378.966106671447
 20
60717.435091940752
 30
0.0
 11
87378.966106671447
 21
40328.010291972263
 31
0.0
  0
LINE
  5
265C
  8
LAYER6
 10
32467.430086447519
 20
26769.535902814619
 30
0.0
 11
41567.430086447523
 21
26769.535902814641
 31
0.0
1001
ACAD
1000
ASC_BOUNDS
1002
{
1070
    19
1005
AF7
1005
ADB
1005
ADB
1005
ADB
1002
}
  0
LINE
  5
265D
  8
LAYER6
 10
32467.43008644753
 20
32394.535902814641
 30
0.0
 11
41567.430086447523
 21
32394.53590281463
 31
0.0
1001
ACAD
1000
ASC_BOUNDS
1002
{
1070
    19
1005
ADB
1005
ADB
1002
}
  0
LINE
  5
265E
  8
LAYER4
 10
8889.9156258629082
 20
25990.742899915629
 30
0.0
 11
47731.908829988861
 21
25990.742899915629
 31
0.0
1001
ACAD
1000
ASC_BOUNDS
1002
{
1070
    19
1005
AF7
1005
ADB
1005
ADB
1005
ADB
1002
}
  0
LINE
  5
265F
  8
LAYER4
 10
66078.245002260184
 20
45478.010291972278
 30
0.0
 11
66078.245002260184
 21
60717.435091940752
 31
0.0
  0
POLYLINE
  5
2662
  8
LAYER6
 66
     1
 10
0.0
 20
0.0
 30
0.0
 70
     1
  0
VERTEX
  5
2BEA
  8
LAYER6
 10
74213.561762682584
 20
41485.995175134143
 30
0.0
  0
VERTEX
  5
2BEB
  8
LAYER6
 10
75799.337253124264
 20
41485.995175134143
 30
0.0
  0
VERTEX
  5
2BEC
  8
LAYER6
 10
75799.337253124264
 20
42661.604956601441
 30
0.0
  0
VERTEX
  5
2BED
  8
LAYER6
 10
74213.561762682584
 20
42661.604956601441
 30
0.0
  0
SEQEND
  5
2BEE
  8
LAYER6
  0
POLYLINE
  5
2668
  8
LAYER6
 66
     1
 10
0.0
 20
0.0
 30
0.0
 70
     1
  0
VERTEX
  5
2BEF
  8
LAYER6
 10
74160.108636876626
 20
41414.746080678371
 30
0.0
  0
VERTEX
  5
2BF0
  8
LAYER6
 10
75852.790378930251
 20
41414.746080678371
 30
0.0
  0
VERTEX
  5
2BF1
  8
LAYER6
 10
75852.790378930251
 20
42715.041777443272
 30
0.0
  0
VERTEX
  5
2BF2
  8
LAYER6
 10
74160.108636876626
 20
42715.041777443272
 30
0.0
  0
SEQEND
  5
2BF3
  8
LAYER6
  0
POLYLINE
  5
266E
  8
LAYER6
 66
     1
 10
0.0
 20
0.0
 30
0.0
 70
     1
  0
VERTEX
  5
2BF4
  8
LAYER6
 10
71687.823185540808
 20
41414.746080678371
 30
0.0
  0
VERTEX
  5
2BF5
  8
LAYER6
 10
73380.504927594418
 20
41414.746080678371
 30
0.0
  0
VERTEX
  5
2BF6
  8
LAYER6
 10
73380.504927594418
 20
42715.041777443272
 30
0.0
  0
VERTEX
  5
2BF7
  8
LAYER6
 10
71687.823185540808
 20
42715.041777443272
 30
0.0
  0
SEQEND
  5
2BF8
  8
LAYER6
  0
POLYLINE
  5
2674
  8
LAYER6
 66
     1
 10
0.0
 20
0.0
 30
0.0
 70
     1
  0
VERTEX
  5
2BF9
  8
LAYER6
 10
71741.27631134681
 20
41485.995175134143
 30
0.0
  0
VERTEX
  5
2BFA
  8
LAYER6
 10
73327.051801788461
 20
41485.995175134143
 30
0.0
  0
VERTEX
  5
2BFB
  8
LAYER6
 10
73327.051801788461
 20
42661.604956601441
 30
0.0
  0
VERTEX
  5
2BFC
  8
LAYER6
 10
71741.27631134681
 20
42661.604956601441
 30
0.0
  0
SEQEND
  5
2BFD
  8
LAYER6
  0
POLYLINE
  5
267A
  8
LAYER6
 66
     1
 10
0.0
 20
0.0
 30
0.0
 70
     1
  0
VERTEX
  5
2BFE
  8
LAYER6
 10
74160.108636876626
 20
38190.724905609117
 30
0.0
  0
VERTEX
  5
2BFF
  8
LAYER6
 10
75852.790378930251
 20
38190.724905609117
 30
0.0
  0
VERTEX
  5
2C00
  8
LAYER6
 10
75852.790378930251
 20
39491.02060237401
 30
0.0
  0
VERTEX
  5
2C01
  8
LAYER6
 10
74160.108636876626
 20
39491.02060237401
 30
0.0
  0
SEQEND
  5
2C02
  8
LAYER6
  0
POLYLINE
  5
2680
  8
LAYER6
 66
     1
 10
0.0
 20
0.0
 30
0.0
 70
     1
  0
VERTEX
  5
2C03
  8
LAYER6
 10
74213.561762682584
 20
38261.974000064867
 30
0.0
  0
VERTEX
  5
2C04
  8
LAYER6
 10
75799.337253124264
 20
38261.974000064867
 30
0.0
  0
VERTEX
  5
2C05
  8
LAYER6
 10
75799.337253124264
 20
39437.583781532172
 30
0.0
  0
VERTEX
  5
2C06
  8
LAYER6
 10
74213.561762682584
 20
39437.583781532172
 30
0.0
  0
SEQEND
  5
2C07
  8
LAYER6
  0
POLYLINE
  5
2686
  8
LAYER6
 66
     1
 10
0.0
 20
0.0
 30
0.0
 70
     1
  0
VERTEX
  5
2C08
  8
LAYER6
 10
71741.27631134681
 20
38261.974000064867
 30
0.0
  0
VERTEX
  5
2C09
  8
LAYER6
 10
73327.051801788461
 20
38261.974000064867
 30
0.0
  0
VERTEX
  5
2C0A
  8
LAYER6
 10
73327.051801788461
 20
39437.583781532172
 30
0.0
  0
VERTEX
  5
2C0B
  8
LAYER6
 10
71741.27631134681
 20
39437.583781532172
 30
0.0
  0
SEQEND
  5
2C0C
  8
LAYER6
  0
POLYLINE
  5
268C
  8
LAYER6
 66
     1
 10
0.0
 20
0.0
 30
0.0
 70
     1
  0
VERTEX
  5
2C0D
  8
LAYER6
 10
71687.823185540808
 20
38190.724905609117
 30
0.0
  0
VERTEX
  5
2C0E
  8
LAYER6
 10
73380.504927594418
 20
38190.724905609117
 30
0.0
  0
VERTEX
  5
2C0F
  8
LAYER6
 10
73380.504927594418
 20
39491.02060237401
 30
0.0
  0
VERTEX
  5
2C10
  8
LAYER6
 10
71687.823185540808
 20
39491.02060237401
 30
0.0
  0
SEQEND
  5
2C11
  8
LAYER6
  0
POLYLINE
  5
2692
  8
LAYER6
 66
     1
 10
0.0
 20
0.0
 30
0.0
 70
     1
  0
VERTEX
  5
2C12
  8
LAYER6
 10
66093.064338608572
 20
38261.974000064867
 30
0.0
  0
VERTEX
  5
2C13
  8
LAYER6
 10
67678.839829050223
 20
38261.974000064867
 30
0.0
  0
VERTEX
  5
2C14
  8
LAYER6
 10
67678.839829050223
 20
39437.583781532172
 30
0.0
  0
VERTEX
  5
2C15
  8
LAYER6
 10
66093.064338608572
 20
39437.583781532172
 30
0.0
  0
SEQEND
  5
2C16
  8
LAYER6
  0
POLYLINE
  5
2698
  8
LAYER6
 66
     1
 10
0.0
 20
0.0
 30
0.0
 70
     1
  0
VERTEX
  5
2C17
  8
LAYER6
 10
66039.611212802571
 20
38190.724905609117
 30
0.0
  0
VERTEX
  5
2C18
  8
LAYER6
 10
67732.292954856195
 20
38190.724905609117
 30
0.0
  0
VERTEX
  5
2C19
  8
LAYER6
 10
67732.292954856195
 20
39491.02060237401
 30
0.0
  0
VERTEX
  5
2C1A
  8
LAYER6
 10
66039.611212802571
 20
39491.02060237401
 30
0.0
  0
SEQEND
  5
2C1B
  8
LAYER6
  0
POLYLINE
  5
269E
  8
LAYER6
 66
     1
 10
0.0
 20
0.0
 30
0.0
 70
     1
  0
VERTEX
  5
2C1C
  8
LAYER6
 10
68511.896664138374
 20
38190.724905609117
 30
0.0
  0
VERTEX
  5
2C1D
  8
LAYER6
 10
70204.578406191984
 20
38190.724905609117
 30
0.0
  0
VERTEX
  5
2C1E
  8
LAYER6
 10
70204.578406191984
 20
39491.02060237401
 30
0.0
  0
VERTEX
  5
2C1F
  8
LAYER6
 10
68511.896664138374
 20
39491.02060237401
 30
0.0
  0
SEQEND
  5
2C20
  8
LAYER6
  0
POLYLINE
  5
26A4
  8
LAYER6
 66
     1
 10
0.0
 20
0.0
 30
0.0
 70
     1
  0
VERTEX
  5
2C21
  8
LAYER6
 10
68565.349789944376
 20
38261.974000064867
 30
0.0
  0
VERTEX
  5
2C22
  8
LAYER6
 10
70151.125280386026
 20
38261.974000064867
 30
0.0
  0
VERTEX
  5
2C23
  8
LAYER6
 10
70151.125280386026
 20
39437.583781532172
 30
0.0
  0
VERTEX
  5
2C24
  8
LAYER6
 10
68565.349789944376
 20
39437.583781532172
 30
0.0
  0
SEQEND
  5
2C25
  8
LAYER6
  0
POLYLINE
  5
26AA
  8
LAYER6
 66
     1
 10
0.0
 20
0.0
 30
0.0
 70
     1
  0
VERTEX
  5
2C26
  8
LAYER6
 10
68565.349789944376
 20
41485.995175134143
 30
0.0
  0
VERTEX
  5
2C27
  8
LAYER6
 10
70151.125280386026
 20
41485.995175134143
 30
0.0
  0
VERTEX
  5
2C28
  8
LAYER6
 10
70151.125280386026
 20
42661.604956601441
 30
0.0
  0
VERTEX
  5
2C29
  8
LAYER6
 10
68565.349789944376
 20
42661.604956601441
 30
0.0
  0
SEQEND
  5
2C2A
  8
LAYER6
  0
POLYLINE
  5
26B0
  8
LAYER6
 66
     1
 10
0.0
 20
0.0
 30
0.0
 70
     1
  0
VERTEX
  5
2C2B
  8
LAYER6
 10
68511.896664138374
 20
41414.746080678371
 30
0.0
  0
VERTEX
  5
2C2C
  8
LAYER6
 10
70204.578406191984
 20
41414.746080678371
 30
0.0
  0
VERTEX
  5
2C2D
  8
LAYER6
 10
70204.578406191984
 20
42715.041777443272
 30
0.0
  0
VERTEX
  5
2C2E
  8
LAYER6
 10
68511.896664138374
 20
42715.041777443272
 30
0.0
  0
SEQEND
  5
2C2F
  8
LAYER6
  0
POLYLINE
  5
26B6
  8
LAYER6
 66
     1
 10
0.0
 20
0.0
 30
0.0
 70
     1
  0
VERTEX
  5
2C30
  8
LAYER6
 10
66039.611212802571
 20
41414.746080678371
 30
0.0
  0
VERTEX
  5
2C31
  8
LAYER6
 10
67732.292954856195
 20
41414.746080678371
 30
0.0
  0
VERTEX
  5
2C32
  8
LAYER6
 10
67732.292954856195
 20
42715.041777443272
 30
0.0
  0
VERTEX
  5
2C33
  8
LAYER6
 10
66039.611212802571
 20
42715.041777443272
 30
0.0
  0
SEQEND
  5
2C34
  8
LAYER6
  0
POLYLINE
  5
26BC
  8
LAYER6
 66
     1
 10
0.0
 20
0.0
 30
0.0
 70
     1
  0
VERTEX
  5
2C35
  8
LAYER6
 10
66093.064338608572
 20
41485.995175134143
 30
0.0
  0
VERTEX
  5
2C36
  8
LAYER6
 10
67678.839829050223
 20
41485.995175134143
 30
0.0
  0
VERTEX
  5
2C37
  8
LAYER6
 10
67678.839829050223
 20
42661.604956601441
 30
0.0
  0
VERTEX
  5
2C38
  8
LAYER6
 10
66093.064338608572
 20
42661.604956601441
 30
0.0
  0
SEQEND
  5
2C39
  8
LAYER6
  0
POLYLINE
  5
26C2
  8
LAYER6
 66
     1
 10
0.0
 20
0.0
 30
0.0
 70
     1
  0
VERTEX
  5
2C3A
  8
LAYER6
 10
62738.961102120207
 20
38190.724905609117
 30
0.0
  0
VERTEX
  5
2C3B
  8
LAYER6
 10
64431.642844173839
 20
38190.724905609117
 30
0.0
  0
VERTEX
  5
2C3C
  8
LAYER6
 10
64431.642844173839
 20
39491.02060237401
 30
0.0
  0
VERTEX
  5
2C3D
  8
LAYER6
 10
62738.961102120207
 20
39491.02060237401
 30
0.0
  0
SEQEND
  5
2C3E
  8
LAYER6
  0
POLYLINE
  5
26C8
  8
LAYER6
 66
     1
 10
0.0
 20
0.0
 30
0.0
 70
     1
  0
VERTEX
  5
2C3F
  8
LAYER6
 10
62792.414227926201
 20
38261.974000064867
 30
0.0
  0
VERTEX
  5
2C40
  8
LAYER6
 10
64378.189718367852
 20
38261.974000064867
 30
0.0
  0
VERTEX
  5
2C41
  8
LAYER6
 10
64378.189718367852
 20
39437.583781532172
 30
0.0
  0
VERTEX
  5
2C42
  8
LAYER6
 10
62792.414227926201
 20
39437.583781532172
 30
0.0
  0
SEQEND
  5
2C43
  8
LAYER6
  0
POLYLINE
  5
26CE
  8
LAYER6
 66
     1
 10
0.0
 20
0.0
 30
0.0
 70
     1
  0
VERTEX
  5
2C44
  8
LAYER6
 10
60266.675650784411
 20
38190.724905609117
 30
0.0
  0
VERTEX
  5
2C45
  8
LAYER6
 10
61959.357392838028
 20
38190.724905609117
 30
0.0
  0
VERTEX
  5
2C46
  8
LAYER6
 10
61959.357392838028
 20
39491.02060237401
 30
0.0
  0
VERTEX
  5
2C47
  8
LAYER6
 10
60266.675650784411
 20
39491.02060237401
 30
0.0
  0
SEQEND
  5
2C48
  8
LAYER6
  0
POLYLINE
  5
26D4
  8
LAYER6
 66
     1
 10
0.0
 20
0.0
 30
0.0
 70
     1
  0
VERTEX
  5
2C49
  8
LAYER6
 10
60320.128776590413
 20
38261.974000064867
 30
0.0
  0
VERTEX
  5
2C4A
  8
LAYER6
 10
61905.904267032063
 20
38261.974000064867
 30
0.0
  0
VERTEX
  5
2C4B
  8
LAYER6
 10
61905.904267032063
 20
39437.583781532172
 30
0.0
  0
VERTEX
  5
2C4C
  8
LAYER6
 10
60320.128776590413
 20
39437.583781532172
 30
0.0
  0
SEQEND
  5
2C4D
  8
LAYER6
  0
POLYLINE
  5
26DA
  8
LAYER6
 66
     1
 10
0.0
 20
0.0
 30
0.0
 70
     1
  0
VERTEX
  5
2C4E
  8
LAYER6
 10
60320.128776590413
 20
41485.995175134143
 30
0.0
  0
VERTEX
  5
2C4F
  8
LAYER6
 10
61905.904267032063
 20
41485.995175134143
 30
0.0
  0
VERTEX
  5
2C50
  8
LAYER6
 10
61905.904267032063
 20
42661.604956601441
 30
0.0
  0
VERTEX
  5
2C51
  8
LAYER6
 10
60320.128776590413
 20
42661.604956601441
 30
0.0
  0
SEQEND
  5
2C52
  8
LAYER6
  0
POLYLINE
  5
26E0
  8
LAYER6
 66
     1
 10
0.0
 20
0.0
 30
0.0
 70
     1
  0
VERTEX
  5
2C53
  8
LAYER6
 10
60266.675650784411
 20
41414.746080678371
 30
0.0
  0
VERTEX
  5
2C54
  8
LAYER6
 10
61959.357392838028
 20
41414.746080678371
 30
0.0
  0
VERTEX
  5
2C55
  8
LAYER6
 10
61959.357392838028
 20
42715.041777443272
 30
0.0
  0
VERTEX
  5
2C56
  8
LAYER6
 10
60266.675650784411
 20
42715.041777443272
 30
0.0
  0
SEQEND
  5
2C57
  8
LAYER6
  0
POLYLINE
  5
26E6
  8
LAYER6
 66
     1
 10
0.0
 20
0.0
 30
0.0
 70
     1
  0
VERTEX
  5
2C58
  8
LAYER6
 10
62792.414227926201
 20
41485.995175134143
 30
0.0
  0
VERTEX
  5
2C59
  8
LAYER6
 10
64378.189718367852
 20
41485.995175134143
 30
0.0
  0
VERTEX
  5
2C5A
  8
LAYER6
 10
64378.189718367852
 20
42661.604956601441
 30
0.0
  0
VERTEX
  5
2C5B
  8
LAYER6
 10
62792.414227926201
 20
42661.604956601441
 30
0.0
  0
SEQEND
  5
2C5C
  8
LAYER6
  0
POLYLINE
  5
26EC
  8
LAYER6
 66
     1
 10
0.0
 20
0.0
 30
0.0
 70
     1
  0
VERTEX
  5
2C5D
  8
LAYER6
 10
62738.961102120207
 20
41414.746080678371
 30
0.0
  0
VERTEX
  5
2C5E
  8
LAYER6
 10
64431.642844173839
 20
41414.746080678371
 30
0.0
  0
VERTEX
  5
2C5F
  8
LAYER6
 10
64431.642844173839
 20
42715.041777443272
 30
0.0
  0
VERTEX
  5
2C60
  8
LAYER6
 10
62738.961102120207
 20
42715.041777443272
 30
0.0
  0
SEQEND
  5
2C61
  8
LAYER6
  0
POLYLINE
  5
26F2
  8
LAYER6
 66
     1
 10
0.0
 20
0.0
 30
0.0
 70
     1
  0
VERTEX
  5
2C62
  8
LAYER6
 10
77206.935736097686
 20
38172.912657448542
 30
0.0
  0
VERTEX
  5
2C63
  8
LAYER6
 10
80627.934658324331
 20
38172.912657448542
 30
0.0
  0
VERTEX
  5
2C64
  8
LAYER6
 10
80627.934658324331
 20
39491.020675591397
 30
0.0
  0
VERTEX
  5
2C65
  8
LAYER6
 10
77206.935736097686
 20
39491.020675591397
 30
0.0
  0
SEQEND
  5
2C66
  8
LAYER6
  0
POLYLINE
  5
26F8
  8
LAYER6
 66
     1
 10
0.0
 20
0.0
 30
0.0
 70
     1
  0
VERTEX
  5
2C67
  8
LAYER6
 10
77153.482574280206
 20
38119.47577511178
 30
0.0
  0
VERTEX
  5
2C68
  8
LAYER6
 10
80681.387820141797
 20
38119.47577511178
 30
0.0
  0
VERTEX
  5
2C69
  8
LAYER6
 10
80681.387820141797
 20
39562.26980608872
 30
0.0
  0
VERTEX
  5
2C6A
  8
LAYER6
 10
77153.482574280206
 20
39562.26980608872
 30
0.0
  0
SEQEND
  5
2C6B
  8
LAYER6
  0
DIMENSION
  5
2705
  8
LAYER3
  2
*D2
 10
84696.004322968685
 20
40664.447048987357
 30
0.0
 11
84444.236946653837
 21
43427.20781546089
 31
0.0
 70
     1
 13
81361.292063310044
 23
45828.01029197227
 33
0.0
 14
82064.451999361161
 24
40328.010291972263
 34
0.0
1001
ACAD
1000
DSTYLE
1002
{
1070
   287
1070
     3
1070
    41
1040
200.0
1070
   140
1040
200.0
1070
   274
1070
     2
1070
   279
1070
     0
1070
   284
1070
     0
1070
   285
1070
     0
1070
   286
1070
     0
1002
}
  0
LINE
  5
2783
  8
LAYER1
 10
47067.430086447523
 20
11739.53590281461
 30
0.0
 11
47067.430086447523
 21
32394.53590281463
 31
0.0
  0
LINE
  5
2A8A
  8
LAYER6
 10
66078.245002260184
 20
45478.010291972278
 30
0.0
 11
59674.451999361168
 21
45478.010291972278
 31
0.0
  0
LINE
  5
2A8B
  8
LAYER4
 10
66078.245002260184
 20
45478.010291972278
 30
0.0
 11
70924.451999361176
 21
45478.010291972278
 31
0.0
  0
LINE
  5
2A8C
  8
LAYER4
 10
70924.451999361161
 20
45478.010291972278
 30
0.0
 11
70924.451999361176
 21
37328.010291972278
 31
0.0
  0
LINE
  5
2A8E
  8
LAYER1
 10
29067.430086447519
 20
11019.535902814619
 30
0.0
 11
15167.43008644753
 21
10463.53590281463
 31
0.0
  0
LINE
  5
2A8F
  8
LAYER1
 10
15167.43008644753
 20
32394.53590281463
 30
0.0
 11
32467.43008644753
 21
32394.535902814641
 31
0.0
  0
LINE
  5
2A92
  8
LAYER1
 10
47067.430086447523
 20
32394.53590281463
 30
0.0
 11
41567.430086447523
 21
32394.53590281463
 31
0.0
  0
LINE
  5
2A93
  8
LAYER1
 10
41567.430086447523
 20
11519.53590281461
 30
0.0
 11
47067.430086447523
 21
11739.53590281461
 31
0.0
  0
LINE
  5
2A94
  8
LAYER1
 10
32467.43008644753
 20
26769.535902814619
 30
0.0
 11
15167.43008644753
 21
26769.535902814619
 31
0.0
  0
LINE
  5
2A95
  8
LAYER1
 10
32467.43008644753
 20
21144.53590281463
 30
0.0
 11
15167.43008644753
 21
21144.535902814641
 31
0.0
  0
LINE
  5
2A96
  8
LAYER1
 10
41567.430086447523
 20
26769.535902814641
 30
0.0
 11
47067.430086447523
 21
26769.535902814641
 31
0.0
  0
LINE
  5
2A97
  8
LAYER1
 10
41567.430086447523
 20
21144.53590281463
 30
0.0
 11
47067.430086447523
 21
21144.53590281463
 31
0.0
  0
TEXT
  5
2AAD
  8
LAYER1
 10
58406.059449180939
 20
7529.2563639568389
 30
0.0
 40
500.0
  1
Kontrollierbarer Bereich
  0
TEXT
  5
2AAE
  8
LAYER1
 10
58306.250709144348
 20
6531.4741695153061
 30
0.0
 40
500.0
  1
Sicherheitsbereich
  0
VIEWPORT
  5
2701
 67
     1
  8
0
 10
5.7228770162616822
 20
4.0100000435158254
 30
0.0
 40
9.4017041543510356
 41
6.793441237126463
 68
     1
 69
     1
1001
ACAD
1000
MVIEW
1002
{
1070
    16
1010
0.0
1020
0.0
1030
0.0
1010
0.0
1020
0.0
1030
1.0
1040
0.0
1040
6.793441237126463
1040
5.7228770162616822
1040
4.0100000435158254
1040
50.0
1040
0.0
1040
0.0
1070
     0
1070
   100
1070
     1
1070
     1
1070
     0
1070
     0
1070
     0
1070
     0
1040
0.0
1040
0.0
1040
0.0
1040
10.0
1040
10.0
1040
10.0
1040
10.0
1070
     0
1002
{
1002
}
1002
}
  0
VIEWPORT
  5
2703
 67
     1
  8
LAYER3
 10
5.722500419053504
 20
4.0099999144321341
 30
0.0
 40
9.1560006704856072
 41
6.4159998630914172
 68
     2
 69
     2
1001
ACAD
1000
MVIEW
1002
{
1070
    16
1010
0.0
1020
0.0
1030
0.0
1010
0.0
1020
0.0
1030
1.0
1040
0.0
1040
57790.128005219951
1040
49860.224083348206
1040
32703.728443722572
1040
50.0
1040
0.0
1040
0.0
1070
     0
1070
   100
1070
     1
1070
     3
1070
     0
1070
     0
1070
     0
1070
     0
1040
0.0
1040
0.0
1040
0.0
1040
10.0
1040
10.0
1040
10.0
1040
10.0
1070
     0
1002
{
1002
}
1002
}
  0
ENDSEC
  0
EOF
